  0
SECTION
  2
HEADER
  9
$ACADVER
  1
AC1015
  9
$ACADMAINTVER
 70
    20
  9
$DWGCODEPAGE
  3
ANSI_1252
  9
$INSBASE
 10
0.0
 20
0.0
 30
0.0
  9
$EXTMIN
 10
-167.7840952773455
 20
-17.00055135813827
 30
0.0
  9
$EXTMAX
 10
627.0173019075262
 20
171.0877337605401
 30
0.0
  9
$LIMMIN
 10
0.0
 20
0.0
  9
$LIMMAX
 10
12.0
 20
9.0
  9
$ORTHOMODE
 70
     1
  9
$REGENMODE
 70
     1
  9
$FILLMODE
 70
     1
  9
$QTEXTMODE
 70
     0
  9
$MIRRTEXT
 70
     0
  9
$LTSCALE
 40
1.0
  9
$ATTMODE
 70
     1
  9
$TEXTSIZE
 40
0.2
  9
$TRACEWID
 40
0.05
  9
$TEXTSTYLE
  7
Standard
  9
$CLAYER
  8
0
  9
$CELTYPE
  6
ByLayer
  9
$CECOLOR
 62
   256
  9
$CELTSCALE
 40
1.0
  9
$DISPSILH
 70
     0
  9
$DIMSCALE
 40
1.0
  9
$DIMASZ
 40
0.18
  9
$DIMEXO
 40
0.0625
  9
$DIMDLI
 40
0.38
  9
$DIMRND
 40
0.0
  9
$DIMDLE
 40
0.0
  9
$DIMEXE
 40
0.18
  9
$DIMTP
 40
0.0
  9
$DIMTM
 40
0.0
  9
$DIMTXT
 40
0.18
  9
$DIMCEN
 40
0.09
  9
$DIMTSZ
 40
0.0
  9
$DIMTOL
 70
     0
  9
$DIMLIM
 70
     0
  9
$DIMTIH
 70
     1
  9
$DIMTOH
 70
     1
  9
$DIMSE1
 70
     0
  9
$DIMSE2
 70
     0
  9
$DIMTAD
 70
     0
  9
$DIMZIN
 70
     0
  9
$DIMBLK
  1

  9
$DIMASO
 70
     1
  9
$DIMSHO
 70
     1
  9
$DIMPOST
  1

  9
$DIMAPOST
  1

  9
$DIMALT
 70
     0
  9
$DIMALTD
 70
     2
  9
$DIMALTF
 40
25.4
  9
$DIMLFAC
 40
1.0
  9
$DIMTOFL
 70
     0
  9
$DIMTVP
 40
0.0
  9
$DIMTIX
 70
     0
  9
$DIMSOXD
 70
     0
  9
$DIMSAH
 70
     0
  9
$DIMBLK1
  1

  9
$DIMBLK2
  1

  9
$DIMSTYLE
  2
Standard
  9
$DIMCLRD
 70
     0
  9
$DIMCLRE
 70
     0
  9
$DIMCLRT
 70
     0
  9
$DIMTFAC
 40
1.0
  9
$DIMGAP
 40
0.09
  9
$DIMJUST
 70
     0
  9
$DIMSD1
 70
     0
  9
$DIMSD2
 70
     0
  9
$DIMTOLJ
 70
     1
  9
$DIMTZIN
 70
     0
  9
$DIMALTZ
 70
     0
  9
$DIMALTTZ
 70
     0
  9
$DIMUPT
 70
     0
  9
$DIMDEC
 70
     4
  9
$DIMTDEC
 70
     4
  9
$DIMALTU
 70
     2
  9
$DIMALTTD
 70
     2
  9
$DIMTXSTY
  7
Standard
  9
$DIMAUNIT
 70
     0
  9
$DIMADEC
 70
     0
  9
$DIMALTRND
 40
0.0
  9
$DIMAZIN
 70
     0
  9
$DIMDSEP
 70
    46
  9
$DIMATFIT
 70
     3
  9
$DIMFRAC
 70
     0
  9
$DIMLDRBLK
  1

  9
$DIMLUNIT
 70
     2
  9
$DIMLWD
 70
    -2
  9
$DIMLWE
 70
    -2
  9
$DIMTMOVE
 70
     0
  9
$LUNITS
 70
     2
  9
$LUPREC
 70
     4
  9
$SKETCHINC
 40
0.1
  9
$FILLETRAD
 40
0.0
  9
$AUNITS
 70
     0
  9
$AUPREC
 70
     0
  9
$MENU
  1
.
  9
$ELEVATION
 40
0.0
  9
$PELEVATION
 40
0.0
  9
$THICKNESS
 40
0.0
  9
$LIMCHECK
 70
     0
  9
$CHAMFERA
 40
0.0
  9
$CHAMFERB
 40
0.0
  9
$CHAMFERC
 40
0.0
  9
$CHAMFERD
 40
0.0
  9
$SKPOLY
 70
     0
  9
$TDCREATE
 40
2455098.373449479
  9
$TDUCREATE
 40
2455098.290116146
  9
$TDUPDATE
 40
2457233.373587419
  9
$TDUUPDATE
 40
2457233.290254086
  9
$TDINDWG
 40
0.0196028009
  9
$TDUSRTIMER
 40
0.0196027315
  9
$USRTIMER
 70
     1
  9
$ANGBASE
 50
0.0
  9
$ANGDIR
 70
     0
  9
$PDMODE
 70
     0
  9
$PDSIZE
 40
0.0
  9
$PLINEWID
 40
0.0
  9
$SPLFRAME
 70
     0
  9
$SPLINETYPE
 70
     6
  9
$SPLINESEGS
 70
     8
  9
$HANDSEED
  5
13D7
  9
$SURFTAB1
 70
     6
  9
$SURFTAB2
 70
     6
  9
$SURFTYPE
 70
     6
  9
$SURFU
 70
     6
  9
$SURFV
 70
     6
  9
$UCSBASE
  2

  9
$UCSNAME
  2

  9
$UCSORG
 10
0.0
 20
0.0
 30
0.0
  9
$UCSXDIR
 10
1.0
 20
0.0
 30
0.0
  9
$UCSYDIR
 10
0.0
 20
1.0
 30
0.0
  9
$UCSORTHOREF
  2

  9
$UCSORTHOVIEW
 70
     0
  9
$UCSORGTOP
 10
0.0
 20
0.0
 30
0.0
  9
$UCSORGBOTTOM
 10
0.0
 20
0.0
 30
0.0
  9
$UCSORGLEFT
 10
0.0
 20
0.0
 30
0.0
  9
$UCSORGRIGHT
 10
0.0
 20
0.0
 30
0.0
  9
$UCSORGFRONT
 10
0.0
 20
0.0
 30
0.0
  9
$UCSORGBACK
 10
0.0
 20
0.0
 30
0.0
  9
$PUCSBASE
  2

  9
$PUCSNAME
  2

  9
$PUCSORG
 10
0.0
 20
0.0
 30
0.0
  9
$PUCSXDIR
 10
1.0
 20
0.0
 30
0.0
  9
$PUCSYDIR
 10
0.0
 20
1.0
 30
0.0
  9
$PUCSORTHOREF
  2

  9
$PUCSORTHOVIEW
 70
     0
  9
$PUCSORGTOP
 10
0.0
 20
0.0
 30
0.0
  9
$PUCSORGBOTTOM
 10
0.0
 20
0.0
 30
0.0
  9
$PUCSORGLEFT
 10
0.0
 20
0.0
 30
0.0
  9
$PUCSORGRIGHT
 10
0.0
 20
0.0
 30
0.0
  9
$PUCSORGFRONT
 10
0.0
 20
0.0
 30
0.0
  9
$PUCSORGBACK
 10
0.0
 20
0.0
 30
0.0
  9
$USERI1
 70
     0
  9
$USERI2
 70
     0
  9
$USERI3
 70
     0
  9
$USERI4
 70
     0
  9
$USERI5
 70
     0
  9
$USERR1
 40
0.0
  9
$USERR2
 40
0.0
  9
$USERR3
 40
0.0
  9
$USERR4
 40
0.0
  9
$USERR5
 40
0.0
  9
$WORLDVIEW
 70
     1
  9
$SHADEDGE
 70
     3
  9
$SHADEDIF
 70
    70
  9
$TILEMODE
 70
     1
  9
$MAXACTVP
 70
    64
  9
$PINSBASE
 10
0.0
 20
0.0
 30
0.0
  9
$PLIMCHECK
 70
     0
  9
$PEXTMIN
 10
0.0
 20
0.0
 30
0.0
  9
$PEXTMAX
 10
0.0
 20
0.0
 30
0.0
  9
$PLIMMIN
 10
0.0
 20
0.0
  9
$PLIMMAX
 10
12.0
 20
9.0
  9
$UNITMODE
 70
     0
  9
$VISRETAIN
 70
     1
  9
$PLINEGEN
 70
     0
  9
$PSLTSCALE
 70
     1
  9
$TREEDEPTH
 70
  3020
  9
$CMLSTYLE
  2
Standard
  9
$CMLJUST
 70
     0
  9
$CMLSCALE
 40
1.0
  9
$PROXYGRAPHICS
 70
     1
  9
$MEASUREMENT
 70
     0
  9
$CELWEIGHT
370
    -1
  9
$ENDCAPS
280
     0
  9
$JOINSTYLE
280
     0
  9
$LWDISPLAY
290
     0
  9
$INSUNITS
 70
     1
  9
$HYPERLINKBASE
  1

  9
$STYLESHEET
  1

  9
$XEDIT
290
     1
  9
$CEPSNTYPE
380
     0
  9
$PSTYLEMODE
290
     1
  9
$FINGERPRINTGUID
  2
{4E634B6C-DD5F-492F-BDB6-580C5028518A}
  9
$VERSIONGUID
  2
{E60139F8-80E9-4174-97DD-ED00AF11E432}
  9
$EXTNAMES
290
     1
  9
$PSVPSCALE
 40
0.0
  9
$OLESTARTUP
290
     0
  0
ENDSEC
  0
SECTION
  2
CLASSES
  0
CLASS
  1
ACDBDICTIONARYWDFLT
  2
AcDbDictionaryWithDefault
  3
ObjectDBX Classes
 90
        0
280
     0
281
     0
  0
CLASS
  1
ACDBPLACEHOLDER
  2
AcDbPlaceHolder
  3
ObjectDBX Classes
 90
        0
280
     0
281
     0
  0
CLASS
  1
LAYOUT
  2
AcDbLayout
  3
ObjectDBX Classes
 90
        0
280
     0
281
     0
  0
CLASS
  1
DICTIONARYVAR
  2
AcDbDictionaryVar
  3
ObjectDBX Classes
 90
        0
280
     0
281
     0
  0
CLASS
  1
TABLESTYLE
  2
AcDbTableStyle
  3
ObjectDBX Classes
 90
     4095
280
     0
281
     0
  0
CLASS
  1
MATERIAL
  2
AcDbMaterial
  3
ObjectDBX Classes
 90
     1153
280
     0
281
     0
  0
CLASS
  1
VISUALSTYLE
  2
AcDbVisualStyle
  3
ObjectDBX Classes
 90
     4095
280
     0
281
     0
  0
CLASS
  1
SCALE
  2
AcDbScale
  3
ObjectDBX Classes
 90
     1153
280
     0
281
     0
  0
CLASS
  1
MLEADERSTYLE
  2
AcDbMLeaderStyle
  3
ACDB_MLEADERSTYLE_CLASS
 90
     4095
280
     0
281
     0
  0
CLASS
  1
CELLSTYLEMAP
  2
AcDbCellStyleMap
  3
ObjectDBX Classes
 90
     1152
280
     0
281
     0
  0
CLASS
  1
ACDBSECTIONVIEWSTYLE
  2
AcDbSectionViewStyle
  3
ObjectDBX Classes
 90
     1025
280
     0
281
     0
  0
CLASS
  1
ACDBDETAILVIEWSTYLE
  2
AcDbDetailViewStyle
  3
ObjectDBX Classes
 90
     1025
280
     0
281
     0
  0
ENDSEC
  0
SECTION
  2
TABLES
  0
TABLE
  2
VPORT
  5
8
330
0
100
AcDbSymbolTable
 70
     1
  0
VPORT
  5
94
330
8
100
AcDbSymbolTableRecord
100
AcDbViewportTableRecord
  2
*Active
 70
     0
 10
0.0
 20
0.0
 11
1.0
 21
1.0
 12
293.4391774034489
 22
66.06305738612599
 13
0.0
 23
0.0
 14
0.5
 24
0.5
 15
0.5
 25
0.5
 16
0.0
 26
0.0
 36
1.0
 17
0.0
 27
0.0
 37
0.0
 40
780.4435004209532
 41
1.861759425493716
 42
50.0
 43
0.0
 44
0.0
 50
0.0
 51
0.0
 71
     0
 72
  1000
 73
     1
 74
     3
 75
     0
 76
     0
 77
     0
 78
     0
281
     0
 65
     1
110
0.0
120
0.0
130
0.0
111
1.0
121
0.0
131
0.0
112
0.0
122
1.0
132
0.0
 79
     0
146
0.0
1001
ACAD_NAV_VCDISPLAY
1070
     3
  0
ENDTAB
  0
TABLE
  2
LTYPE
  5
5
330
0
100
AcDbSymbolTable
 70
     3
  0
LTYPE
  5
14
330
5
100
AcDbSymbolTableRecord
100
AcDbLinetypeTableRecord
  2
ByBlock
 70
     0
  3

 72
    65
 73
     0
 40
0.0
  0
LTYPE
  5
15
330
5
100
AcDbSymbolTableRecord
100
AcDbLinetypeTableRecord
  2
ByLayer
 70
     0
  3

 72
    65
 73
     0
 40
0.0
  0
LTYPE
  5
16
330
5
100
AcDbSymbolTableRecord
100
AcDbLinetypeTableRecord
  2
Continuous
 70
     0
  3
Solid line
 72
    65
 73
     0
 40
0.0
  0
LTYPE
  5
14D
330
5
100
AcDbSymbolTableRecord
100
AcDbLinetypeTableRecord
  2
CONTINUA
 70
     0
  3
Linea continua
 72
    65
 73
     0
 40
0.0
  0
ENDTAB
  0
TABLE
  2
LAYER
  5
2
102
{ACAD_XDICTIONARY
360
F20
102
}
330
0
100
AcDbSymbolTable
 70
     2
  0
LAYER
  5
10
102
{ACAD_XDICTIONARY
360
E6
102
}
330
2
100
AcDbSymbolTableRecord
100
AcDbLayerTableRecord
  2
0
 70
     0
 62
     7
  6
Continuous
370
    -3
390
F
  0
LAYER
  5
F1F
330
2
100
AcDbSymbolTableRecord
100
AcDbLayerTableRecord
  2
Defpoints
 70
     0
 62
     7
  6
Continuous
290
     0
370
    -3
390
F
  0
ENDTAB
  0
TABLE
  2
STYLE
  5
3
330
0
100
AcDbSymbolTable
 70
     4
  0
STYLE
  5
11
330
3
100
AcDbSymbolTableRecord
100
AcDbTextStyleTableRecord
  2
Standard
 70
     0
 40
0.0
 41
1.0
 50
0.0
 71
     0
 42
0.2
  3
txt.shx
  4

  0
STYLE
  5
DC
330
3
100
AcDbSymbolTableRecord
100
AcDbTextStyleTableRecord
  2
Annotativa
 70
     0
 40
0.0
 41
1.0
 50
0.0
 71
     0
 42
0.2
  3
txt.shx
  4

1001
AcadAnnotative
1000
AnnotativeData
1002
{
1070
     1
1070
     1
1002
}
  0
STYLE
  5
14E
330
3
100
AcDbSymbolTableRecord
100
AcDbTextStyleTableRecord
  2
H
 70
     0
 40
1.75
 41
1.0
 50
0.0
 71
     0
 42
1.75
  3
swiss.ttf
  4

1001
ACAD
1000
Swis721 BT
1071
       34
  0
STYLE
  5
14F
330
3
100
AcDbSymbolTableRecord
100
AcDbTextStyleTableRecord
  2
ZD
 70
     0
 40
0.0
 41
1.0
 50
0.0
 71
     0
 42
3.0
  3
SIMPLEX
  4

  0
ENDTAB
  0
TABLE
  2
VIEW
  5
6
330
0
100
AcDbSymbolTable
 70
     0
  0
ENDTAB
  0
TABLE
  2
UCS
  5
7
330
0
100
AcDbSymbolTable
 70
     0
  0
ENDTAB
  0
TABLE
  2
APPID
  5
9
330
0
100
AcDbSymbolTable
 70
    10
  0
APPID
  5
12
330
9
100
AcDbSymbolTableRecord
100
AcDbRegAppTableRecord
  2
ACAD
 70
     0
  0
APPID
  5
DD
330
9
100
AcDbSymbolTableRecord
100
AcDbRegAppTableRecord
  2
AcadAnnoPO
 70
     0
  0
APPID
  5
DE
330
9
100
AcDbSymbolTableRecord
100
AcDbRegAppTableRecord
  2
AcadAnnotative
 70
     0
  0
APPID
  5
DF
330
9
100
AcDbSymbolTableRecord
100
AcDbRegAppTableRecord
  2
ACAD_DSTYLE_DIMJAG
 70
     0
  0
APPID
  5
E0
330
9
100
AcDbSymbolTableRecord
100
AcDbRegAppTableRecord
  2
ACAD_DSTYLE_DIMTALN
 70
     0
  0
APPID
  5
107
330
9
100
AcDbSymbolTableRecord
100
AcDbRegAppTableRecord
  2
ACAD_MLEADERVER
 70
     0
  0
APPID
  5
E5F
330
9
100
AcDbSymbolTableRecord
100
AcDbRegAppTableRecord
  2
VDEXTRAPARAM
 70
     0
  0
APPID
  5
E60
330
9
100
AcDbSymbolTableRecord
100
AcDbRegAppTableRecord
  2
ACAD_NAV_VCDISPLAY
 70
     0
  0
APPID
  5
10CB
330
9
100
AcDbSymbolTableRecord
100
AcDbRegAppTableRecord
  2
ACAD_EXEMPT_FROM_CAD_STANDARDS
 70
     0
  0
APPID
  5
126F
330
9
100
AcDbSymbolTableRecord
100
AcDbRegAppTableRecord
  2
ACAD_PSEXT
 70
     0
  0
ENDTAB
  0
TABLE
  2
DIMSTYLE
  5
A
330
0
100
AcDbSymbolTable
 70
     5
100
AcDbDimStyleTable
 71
     2
340
27
340
E1
  0
DIMSTYLE
105
27
102
{ACAD_REACTORS
330
F2B
330
F2C
330
F2D
330
F2E
330
12D9
330
12DA
330
12DB
330
12DC
102
}
330
A
100
AcDbSymbolTableRecord
100
AcDbDimStyleTableRecord
  2
Standard
 70
     0
340
11
  0
DIMSTYLE
105
E1
330
A
100
AcDbSymbolTableRecord
100
AcDbDimStyleTableRecord
  2
Annotativa
 70
     0
 40
0.0
340
11
1001
AcadAnnotative
1000
AnnotativeData
1002
{
1070
     1
1070
     1
1002
}
1001
ACAD_DSTYLE_DIMJAG
1070
   388
1040
1.5
1001
ACAD_DSTYLE_DIMTALN
1070
   392
1070
     0
  0
DIMSTYLE
105
150
330
A
100
AcDbSymbolTableRecord
100
AcDbDimStyleTableRecord
  2
GEWISS
 70
     0
 41
1.7
 42
1.0
 43
7.0
 44
0.3
 73
     0
 74
     0
 77
     1
140
1.75
141
1.5
147
0.5
172
     1
176
     1
177
     1
340
14E
  0
DIMSTYLE
105
126E
330
A
100
AcDbSymbolTableRecord
100
AcDbDimStyleTableRecord
  2
ISO-25
 70
     0
 41
2.5
 42
0.625
 43
3.75
 44
1.25
 73
     0
 74
     0
 77
     1
 78
     8
140
2.5
141
2.5
143
0.03937007874016
147
0.625
171
     3
172
     1
271
     2
272
     2
274
     3
278
    44
283
     0
284
     8
340
11
  0
ENDTAB
  0
TABLE
  2
BLOCK_RECORD
  5
1
330
0
100
AcDbSymbolTable
 70
    27
  0
BLOCK_RECORD
  5
1F
330
1
100
AcDbSymbolTableRecord
100
AcDbBlockTableRecord
  2
*Model_Space
340
22
  0
BLOCK_RECORD
  5
58
330
1
100
AcDbSymbolTableRecord
100
AcDbBlockTableRecord
  2
*Paper_Space
340
59
  0
BLOCK_RECORD
  5
5D
330
1
100
AcDbSymbolTableRecord
100
AcDbBlockTableRecord
  2
*Paper_Space0
340
5E
  0
BLOCK_RECORD
  5
E5B
330
1
100
AcDbSymbolTableRecord
100
AcDbBlockTableRecord
  2
VDDIM_DEFAULT
340
0
  0
BLOCK_RECORD
  5
EEB
330
1
100
AcDbSymbolTableRecord
100
AcDbBlockTableRecord
  2
*D2
340
0
  0
BLOCK_RECORD
  5
EF8
330
1
100
AcDbSymbolTableRecord
100
AcDbBlockTableRecord
  2
*D3
340
0
  0
BLOCK_RECORD
  5
F05
330
1
100
AcDbSymbolTableRecord
100
AcDbBlockTableRecord
  2
*D4
340
0
  0
BLOCK_RECORD
  5
F12
330
1
100
AcDbSymbolTableRecord
100
AcDbBlockTableRecord
  2
*D5
340
0
  0
BLOCK_RECORD
  5
F2F
330
1
100
AcDbSymbolTableRecord
100
AcDbBlockTableRecord
  2
*D6
340
0
  0
BLOCK_RECORD
  5
F3C
330
1
100
AcDbSymbolTableRecord
100
AcDbBlockTableRecord
  2
*D7
340
0
  0
BLOCK_RECORD
  5
F49
330
1
100
AcDbSymbolTableRecord
100
AcDbBlockTableRecord
  2
*D8
340
0
  0
BLOCK_RECORD
  5
F56
330
1
100
AcDbSymbolTableRecord
100
AcDbBlockTableRecord
  2
*D9
340
0
  0
BLOCK_RECORD
  5
10D2
330
1
100
AcDbSymbolTableRecord
100
AcDbBlockTableRecord
  2
*D10
340
0
  0
BLOCK_RECORD
  5
11A7
330
1
100
AcDbSymbolTableRecord
100
AcDbBlockTableRecord
  2
*D11
340
0
  0
BLOCK_RECORD
  5
123A
330
1
100
AcDbSymbolTableRecord
100
AcDbBlockTableRecord
  2
*D12
340
0
  0
BLOCK_RECORD
  5
1247
330
1
100
AcDbSymbolTableRecord
100
AcDbBlockTableRecord
  2
*D13
340
0
  0
BLOCK_RECORD
  5
1254
330
1
100
AcDbSymbolTableRecord
100
AcDbBlockTableRecord
  2
*D14
340
0
  0
BLOCK_RECORD
  5
1261
330
1
100
AcDbSymbolTableRecord
100
AcDbBlockTableRecord
  2
*D15
340
0
  0
BLOCK_RECORD
  5
1270
102
{ACAD_XDICTIONARY
360
1281
102
}
330
1
100
AcDbSymbolTableRecord
100
AcDbBlockTableRecord
  2
A$C7E907D64
340
0
1001
ACAD
1000
DesignCenter Data
1002
{
1070
     1
1070
     4
1002
}
  0
BLOCK_RECORD
  5
1284
330
1
100
AcDbSymbolTableRecord
100
AcDbBlockTableRecord
  2
*D17
340
0
  0
BLOCK_RECORD
  5
1291
330
1
100
AcDbSymbolTableRecord
100
AcDbBlockTableRecord
  2
*D18
340
0
  0
BLOCK_RECORD
  5
129E
330
1
100
AcDbSymbolTableRecord
100
AcDbBlockTableRecord
  2
*D19
340
0
  0
BLOCK_RECORD
  5
12AB
330
1
100
AcDbSymbolTableRecord
100
AcDbBlockTableRecord
  2
*D20
340
0
  0
BLOCK_RECORD
  5
12DD
330
1
100
AcDbSymbolTableRecord
100
AcDbBlockTableRecord
  2
*D22
340
0
  0
BLOCK_RECORD
  5
12EA
330
1
100
AcDbSymbolTableRecord
100
AcDbBlockTableRecord
  2
*D23
340
0
  0
BLOCK_RECORD
  5
12F7
330
1
100
AcDbSymbolTableRecord
100
AcDbBlockTableRecord
  2
*D24
340
0
  0
BLOCK_RECORD
  5
1304
330
1
100
AcDbSymbolTableRecord
100
AcDbBlockTableRecord
  2
*D25
340
0
  0
ENDTAB
  0
ENDSEC
  0
SECTION
  2
BLOCKS
  0
BLOCK
  5
20
330
1F
100
AcDbEntity
  8
0
100
AcDbBlockBegin
  2
*Model_Space
 70
     0
 10
0.0
 20
0.0
 30
0.0
  3
*Model_Space
  1

  0
ENDBLK
  5
21
330
1F
100
AcDbEntity
  8
0
100
AcDbBlockEnd
  0
BLOCK
  5
5A
330
58
100
AcDbEntity
 67
     1
  8
0
100
AcDbBlockBegin
  2
*Paper_Space
 70
     0
 10
0.0
 20
0.0
 30
0.0
  3
*Paper_Space
  1

  0
ENDBLK
  5
5B
330
58
100
AcDbEntity
 67
     1
  8
0
100
AcDbBlockEnd
  0
BLOCK
  5
5F
330
5D
100
AcDbEntity
 67
     1
  8
0
100
AcDbBlockBegin
  2
*Paper_Space0
 70
     0
 10
0.0
 20
0.0
 30
0.0
  3
*Paper_Space0
  1

  0
ENDBLK
  5
60
330
5D
100
AcDbEntity
 67
     1
  8
0
100
AcDbBlockEnd
  0
BLOCK
  5
E5C
330
E5B
100
AcDbEntity
  8
0
100
AcDbBlockBegin
  2
VDDIM_DEFAULT
 70
     0
 10
0.0
 20
0.0
 30
0.0
  3
VDDIM_DEFAULT
  1

  0
HATCH
  5
E5D
330
E5B
100
AcDbEntity
  8
0
 62
     0
370
    -2
100
AcDbHatch
 10
0.0
 20
0.0
 30
0.0
210
0.0
220
0.0
230
-1.0
  2
SOLID
 70
     1
 71
     0
 91
        1
 92
        2
 72
     0
 73
     1
 93
        3
 10
0.0
 20
0.0
 10
1.0
 20
-0.1665
 10
1.0
 20
0.1665
 97
        0
 75
     0
 76
     1
 98
        1
 10
0.0
 20
0.0
  0
ENDBLK
  5
E5E
330
E5B
100
AcDbEntity
  8
0
100
AcDbBlockEnd
  0
BLOCK
  5
EEC
330
EEB
100
AcDbEntity
  8
0
100
AcDbBlockBegin
  2
*D2
 70
     1
 10
0.0
 20
0.0
 30
0.0
  3
*D2
  1

  0
LINE
  5
EED
330
EEB
100
AcDbEntity
  8
0
 62
     0
370
    -2
100
AcDbLine
 10
20.36449744536722
 20
19.11931731663766
 30
0.0
 11
20.36449744536722
 21
-15.76828405907723
 31
0.0
  0
LINE
  5
EEE
330
EEB
100
AcDbEntity
  8
0
 62
     0
370
    -2
100
AcDbLine
 10
175.3589370453672
 20
19.05681731663766
 30
0.0
 11
175.3589370453672
 21
-15.76828405907723
 31
0.0
  0
LINE
  5
EEF
330
EEB
100
AcDbEntity
  8
0
 62
     0
370
    -2
100
AcDbLine
 10
26.36449744536722
 20
-15.58828405907723
 30
0.0
 11
82.32936855359131
 21
-15.58828405907723
 31
0.0
  0
LINE
  5
EF0
330
EEB
100
AcDbEntity
  8
0
 62
     0
370
    -2
100
AcDbLine
 10
169.3589370453672
 20
-15.58828405907723
 30
0.0
 11
107.0093685535913
 21
-15.58828405907723
 31
0.0
  0
SOLID
  5
EF1
330
EEB
100
AcDbEntity
  8
0
 62
     0
100
AcDbTrace
 10
26.36449744536722
 20
-14.58828405907723
 30
0.0
 11
26.36449744536722
 21
-16.58828405907723
 31
0.0
 12
20.36449744536722
 22
-15.58828405907723
 32
0.0
 13
20.36449744536722
 23
-15.58828405907723
 33
0.0
  0
SOLID
  5
EF2
330
EEB
100
AcDbEntity
  8
0
 62
     0
100
AcDbTrace
 10
169.3589370453672
 20
-14.58828405907723
 30
0.0
 11
169.3589370453672
 21
-16.58828405907723
 31
0.0
 12
175.3589370453672
 22
-15.58828405907723
 32
0.0
 13
175.3589370453672
 23
-15.58828405907723
 33
0.0
  0
MTEXT
  5
EF3
330
EEB
100
AcDbEntity
  8
0
 62
     0
100
AcDbMText
 10
94.66936855359131
 20
-15.58828405907723
 30
0.0
 40
7.0
 41
0.0
 71
     5
 72
     1
  1
\A1;155.0
 73
     1
 44
1.0
1001
ACAD
1000
MTEXTBEGIN
1070
    73
1070
     1
1070
    44
1040
1.0
1070
    74
1070
     0
1000
MTEXTEND
  0
POINT
  5
EF4
330
EEB
100
AcDbEntity
  8
Defpoints
 62
     0
100
AcDbPoint
 10
20.36449744536722
 20
19.18181731663766
 30
0.0
  0
POINT
  5
EF5
330
EEB
100
AcDbEntity
  8
Defpoints
 62
     0
100
AcDbPoint
 10
175.3589370453672
 20
19.11931731663766
 30
0.0
  0
POINT
  5
EF6
330
EEB
100
AcDbEntity
  8
Defpoints
 62
     0
100
AcDbPoint
 10
175.3589370453672
 20
-15.58828405907723
 30
0.0
  0
ENDBLK
  5
EF7
330
EEB
100
AcDbEntity
  8
0
100
AcDbBlockEnd
  0
BLOCK
  5
EF9
330
EF8
100
AcDbEntity
  8
0
100
AcDbBlockBegin
  2
*D3
 70
     1
 10
0.0
 20
0.0
 30
0.0
  3
*D3
  1

  0
LINE
  5
EFA
330
EF8
100
AcDbEntity
  8
0
 62
     0
370
    -2
100
AcDbLine
 10
169.4601124453671
 20
13.15799271663766
 30
0.0
 11
223.6830184012375
 21
13.15799271663764
 31
0.0
  0
LINE
  5
EFB
330
EF8
100
AcDbEntity
  8
0
 62
     0
370
    -2
100
AcDbLine
 10
169.4573322453671
 20
128.1579927166376
 30
0.0
 11
223.6830184012375
 21
128.1579927166375
 31
0.0
  0
LINE
  5
EFC
330
EF8
100
AcDbEntity
  8
0
 62
     0
370
    -2
100
AcDbLine
 10
223.5030184012375
 20
19.15799271663764
 30
0.0
 11
223.5030184012375
 21
65.70161832346129
 31
0.0
  0
LINE
  5
EFD
330
EF8
100
AcDbEntity
  8
0
 62
     0
370
    -2
100
AcDbLine
 10
223.5030184012375
 20
122.1579927166375
 30
0.0
 11
223.5030184012375
 21
72.8816183234613
 31
0.0
  0
SOLID
  5
EFE
330
EF8
100
AcDbEntity
  8
0
 62
     0
100
AcDbTrace
 10
222.5030184012375
 20
19.15799271663764
 30
0.0
 11
224.5030184012375
 21
19.15799271663764
 31
0.0
 12
223.5030184012375
 22
13.15799271663764
 32
0.0
 13
223.5030184012375
 23
13.15799271663764
 33
0.0
  0
SOLID
  5
EFF
330
EF8
100
AcDbEntity
  8
0
 62
     0
100
AcDbTrace
 10
222.5030184012375
 20
122.1579927166375
 30
0.0
 11
224.5030184012375
 21
122.1579927166375
 31
0.0
 12
223.5030184012375
 22
128.1579927166375
 32
0.0
 13
223.5030184012375
 23
128.1579927166375
 33
0.0
  0
MTEXT
  5
F00
330
EF8
100
AcDbEntity
  8
0
 62
     0
100
AcDbMText
 10
223.5030184012375
 20
69.29161832346132
 30
0.0
 40
7.0
 41
0.0
 71
     5
 72
     1
  1
\A1;115.0
 73
     1
 44
1.0
1001
ACAD
1000
MTEXTBEGIN
1070
    73
1070
     1
1070
    44
1040
1.0
1070
    74
1070
     0
1000
MTEXTEND
  0
POINT
  5
F01
330
EF8
100
AcDbEntity
  8
Defpoints
 62
     0
100
AcDbPoint
 10
169.3976124453671
 20
13.15799271663766
 30
0.0
  0
POINT
  5
F02
330
EF8
100
AcDbEntity
  8
Defpoints
 62
     0
100
AcDbPoint
 10
169.3948322453671
 20
128.1579927166376
 30
0.0
  0
POINT
  5
F03
330
EF8
100
AcDbEntity
  8
Defpoints
 62
     0
100
AcDbPoint
 10
223.5030184012375
 20
128.1579927166375
 30
0.0
  0
ENDBLK
  5
F04
330
EF8
100
AcDbEntity
  8
0
100
AcDbBlockEnd
  0
BLOCK
  5
F06
330
F05
100
AcDbEntity
  8
0
100
AcDbBlockBegin
  2
*D4
 70
     1
 10
0.0
 20
0.0
 30
0.0
  3
*D4
  1

  0
LINE
  5
F07
330
F05
100
AcDbEntity
  8
0
 62
     0
370
    -2
100
AcDbLine
 10
-141.2945177876792
 20
68.29439467988561
 30
0.0
 11
-141.2945177876792
 21
-15.56773957702126
 31
0.0
  0
LINE
  5
F08
330
F05
100
AcDbEntity
  8
0
 62
     0
370
    -2
100
AcDbLine
 10
-86.32367701007948
 20
8.869000716637543
 30
0.0
 11
-86.32367701007948
 21
-15.56773957702125
 31
0.0
  0
LINE
  5
F09
330
F05
100
AcDbEntity
  8
0
 62
     0
370
    -2
100
AcDbLine
 10
-135.2945177876792
 20
-15.38773957702125
 30
0.0
 11
-123.815764065546
 21
-15.38773957702125
 31
0.0
  0
LINE
  5
F0A
330
F05
100
AcDbEntity
  8
0
 62
     0
370
    -2
100
AcDbLine
 10
-92.3236770100795
 20
-15.38773957702125
 30
0.0
 11
-103.8024307322127
 21
-15.38773957702125
 31
0.0
  0
SOLID
  5
F0B
330
F05
100
AcDbEntity
  8
0
 62
     0
100
AcDbTrace
 10
-135.2945177876792
 20
-14.38773957702125
 30
0.0
 11
-135.2945177876792
 21
-16.38773957702125
 31
0.0
 12
-141.2945177876792
 22
-15.38773957702125
 32
0.0
 13
-141.2945177876792
 23
-15.38773957702125
 33
0.0
  0
SOLID
  5
F0C
330
F05
100
AcDbEntity
  8
0
 62
     0
100
AcDbTrace
 10
-92.3236770100795
 20
-14.38773957702125
 30
0.0
 11
-92.3236770100795
 21
-16.38773957702125
 31
0.0
 12
-86.32367701007948
 22
-15.38773957702125
 32
0.0
 13
-86.32367701007948
 23
-15.38773957702125
 33
0.0
  0
MTEXT
  5
F0D
330
F05
100
AcDbEntity
  8
0
 62
     0
100
AcDbMText
 10
-113.8090973988793
 20
-15.38773957702125
 30
0.0
 40
7.0
 41
0.0
 71
     5
 72
     1
  1
\A1;55.0
 73
     1
 44
1.0
1001
ACAD
1000
MTEXTBEGIN
1070
    73
1070
     1
1070
    44
1040
1.0
1070
    74
1070
     0
1000
MTEXTEND
  0
POINT
  5
F0E
330
F05
100
AcDbEntity
  8
Defpoints
 62
     0
100
AcDbPoint
 10
-141.2945177876792
 20
68.35689467988562
 30
0.0
  0
POINT
  5
F0F
330
F05
100
AcDbEntity
  8
Defpoints
 62
     0
100
AcDbPoint
 10
-86.32367701007948
 20
8.931500716637543
 30
0.0
  0
POINT
  5
F10
330
F05
100
AcDbEntity
  8
Defpoints
 62
     0
100
AcDbPoint
 10
-86.32367701007948
 20
-15.38773957702125
 30
0.0
  0
ENDBLK
  5
F11
330
F05
100
AcDbEntity
  8
0
100
AcDbBlockEnd
  0
BLOCK
  5
F13
330
F12
100
AcDbEntity
  8
0
100
AcDbBlockBegin
  2
*D5
 70
     1
 10
0.0
 20
0.0
 30
0.0
  3
*D5
  1

  0
LINE
  5
F14
330
F12
100
AcDbEntity
  8
0
 62
     0
370
    -2
100
AcDbLine
 10
-86.32367701007948
 20
13.09549271663773
 30
0.0
 11
-86.32367701007948
 21
-15.56773957702125
 31
0.0
  0
LINE
  5
F15
330
F12
100
AcDbEntity
  8
0
 62
     0
370
    -2
100
AcDbLine
 10
-33.32367701007928
 20
24.96457713663654
 30
0.0
 11
-33.32367701007928
 21
-15.56773957702125
 31
0.0
  0
LINE
  5
F16
330
F12
100
AcDbEntity
  8
0
 62
     0
370
    -2
100
AcDbLine
 10
-80.32367701007952
 20
-15.38773957702125
 30
0.0
 11
-67.46641209932461
 21
-15.38773957702125
 31
0.0
  0
LINE
  5
F17
330
F12
100
AcDbEntity
  8
0
 62
     0
370
    -2
100
AcDbLine
 10
-39.32367701007928
 20
-15.38773957702125
 30
0.0
 11
-47.45307876599127
 21
-15.38773957702125
 31
0.0
  0
SOLID
  5
F18
330
F12
100
AcDbEntity
  8
0
 62
     0
100
AcDbTrace
 10
-80.32367701007952
 20
-14.38773957702125
 30
0.0
 11
-80.32367701007952
 21
-16.38773957702125
 31
0.0
 12
-86.32367701007948
 22
-15.38773957702125
 32
0.0
 13
-86.32367701007948
 23
-15.38773957702125
 33
0.0
  0
SOLID
  5
F19
330
F12
100
AcDbEntity
  8
0
 62
     0
100
AcDbTrace
 10
-39.32367701007928
 20
-14.38773957702125
 30
0.0
 11
-39.32367701007928
 21
-16.38773957702125
 31
0.0
 12
-33.32367701007928
 22
-15.38773957702125
 32
0.0
 13
-33.32367701007928
 23
-15.38773957702125
 33
0.0
  0
MTEXT
  5
F1A
330
F12
100
AcDbEntity
  8
0
 62
     0
100
AcDbMText
 10
-57.45974543265794
 20
-15.38773957702125
 30
0.0
 40
7.0
 41
0.0
 71
     5
 72
     1
  1
\A1;53.0
 73
     1
 44
1.0
1001
ACAD
1000
MTEXTBEGIN
1070
    73
1070
     1
1070
    44
1040
1.0
1070
    74
1070
     0
1000
MTEXTEND
  0
POINT
  5
F1B
330
F12
100
AcDbEntity
  8
Defpoints
 62
     0
100
AcDbPoint
 10
-86.32367701007948
 20
13.15799271663773
 30
0.0
  0
POINT
  5
F1C
330
F12
100
AcDbEntity
  8
Defpoints
 62
     0
100
AcDbPoint
 10
-33.32367701007928
 20
25.02707713663653
 30
0.0
  0
POINT
  5
F1D
330
F12
100
AcDbEntity
  8
Defpoints
 62
     0
100
AcDbPoint
 10
-33.32367701007928
 20
-15.38773957702125
 30
0.0
  0
ENDBLK
  5
F1E
330
F12
100
AcDbEntity
  8
0
100
AcDbBlockEnd
  0
BLOCK
  5
F30
330
F2F
100
AcDbEntity
  8
0
100
AcDbBlockBegin
  2
*D6
 70
     1
 10
0.0
 20
0.0
 30
0.0
  3
*D6
  1

  0
LINE
  5
FEF
330
F2F
100
AcDbEntity
  8
0
 62
     0
370
    -2
100
AcDbLine
 10
18.02988794178822
 20
16.2560666927116
 30
0.0
 11
18.02988794178821
 21
-13.39285912244497
 31
0.0
  0
LINE
  5
FF0
330
F2F
100
AcDbEntity
  8
0
 62
     0
370
    -2
100
AcDbLine
 10
214.0298879417882
 20
16.1935666927116
 30
0.0
 11
214.0298879417882
 21
-13.39285912244497
 31
0.0
  0
LINE
  5
FF1
330
F2F
100
AcDbEntity
  8
0
 62
     0
370
    -2
100
AcDbLine
 10
24.02988794178821
 20
-13.21285912244497
 30
0.0
 11
109.4355786392675
 21
-13.21285912244497
 31
0.0
  0
LINE
  5
FF2
330
F2F
100
AcDbEntity
  8
0
 62
     0
370
    -2
100
AcDbLine
 10
208.0298879417882
 20
-13.21285912244497
 30
0.0
 11
134.1155786392675
 21
-13.21285912244497
 31
0.0
  0
SOLID
  5
FF3
330
F2F
100
AcDbEntity
  8
0
 62
     0
100
AcDbTrace
 10
24.02988794178821
 20
-12.21285912244497
 30
0.0
 11
24.02988794178821
 21
-14.21285912244497
 31
0.0
 12
18.02988794178821
 22
-13.21285912244497
 32
0.0
 13
18.02988794178821
 23
-13.21285912244497
 33
0.0
  0
SOLID
  5
FF4
330
F2F
100
AcDbEntity
  8
0
 62
     0
100
AcDbTrace
 10
208.0298879417882
 20
-12.21285912244497
 30
0.0
 11
208.0298879417882
 21
-14.21285912244497
 31
0.0
 12
214.0298879417882
 22
-13.21285912244497
 32
0.0
 13
214.0298879417882
 23
-13.21285912244497
 33
0.0
  0
MTEXT
  5
FF5
330
F2F
100
AcDbEntity
  8
0
 62
     0
100
AcDbMText
 10
121.7755786392675
 20
-13.21285912244497
 30
0.0
 40
7.0
 41
0.0
 71
     5
 72
     1
  1
\A1;196.0
 73
     1
 44
1.0
1001
ACAD
1000
MTEXTBEGIN
1070
    73
1070
     1
1070
    44
1040
1.0
1070
    74
1070
     0
1000
MTEXTEND
  0
POINT
  5
FF6
330
F2F
100
AcDbEntity
  8
Defpoints
 62
     0
100
AcDbPoint
 10
18.02988794178822
 20
16.3185666927116
 30
0.0
  0
POINT
  5
FF7
330
F2F
100
AcDbEntity
  8
Defpoints
 62
     0
100
AcDbPoint
 10
214.0298879417882
 20
16.2560666927116
 30
0.0
  0
POINT
  5
FF8
330
F2F
100
AcDbEntity
  8
Defpoints
 62
     0
100
AcDbPoint
 10
214.0298879417882
 20
-13.21285912244497
 30
0.0
  0
ENDBLK
  5
F31
330
F2F
100
AcDbEntity
  8
0
100
AcDbBlockEnd
  0
BLOCK
  5
F3D
330
F3C
100
AcDbEntity
  8
0
100
AcDbBlockBegin
  2
*D7
 70
     1
 10
0.0
 20
0.0
 30
0.0
  3
*D7
  1

  0
LINE
  5
F95
330
F3C
100
AcDbEntity
  8
0
 62
     0
370
    -2
100
AcDbLine
 10
208.5327903845982
 20
10.7561889355216
 30
0.0
 11
262.7556963404686
 21
10.75618893552158
 31
0.0
  0
LINE
  5
F96
330
F3C
100
AcDbEntity
  8
0
 62
     0
370
    -2
100
AcDbLine
 10
208.5300101845982
 20
160.7561889355215
 30
0.0
 11
262.7556963404686
 21
160.7561889355215
 31
0.0
  0
LINE
  5
F97
330
F3C
100
AcDbEntity
  8
0
 62
     0
370
    -2
100
AcDbLine
 10
262.5756963404686
 20
16.75618893552158
 30
0.0
 11
262.5756963404686
 21
98.29981454234522
 31
0.0
  0
LINE
  5
F98
330
F3C
100
AcDbEntity
  8
0
 62
     0
370
    -2
100
AcDbLine
 10
262.5756963404687
 20
154.7561889355215
 30
0.0
 11
262.5756963404686
 21
105.4798145423452
 31
0.0
  0
SOLID
  5
F99
330
F3C
100
AcDbEntity
  8
0
 62
     0
100
AcDbTrace
 10
261.5756963404686
 20
16.75618893552158
 30
0.0
 11
263.5756963404686
 21
16.75618893552158
 31
0.0
 12
262.5756963404686
 22
10.75618893552158
 32
0.0
 13
262.5756963404686
 23
10.75618893552158
 33
0.0
  0
SOLID
  5
F9A
330
F3C
100
AcDbEntity
  8
0
 62
     0
100
AcDbTrace
 10
261.5756963404686
 20
154.7561889355215
 30
0.0
 11
263.5756963404686
 21
154.7561889355215
 31
0.0
 12
262.5756963404687
 22
160.7561889355215
 32
0.0
 13
262.5756963404687
 23
160.7561889355215
 33
0.0
  0
MTEXT
  5
F9B
330
F3C
100
AcDbEntity
  8
0
 62
     0
100
AcDbMText
 10
262.5756963404686
 20
101.8898145423452
 30
0.0
 40
7.0
 41
0.0
 71
     5
 72
     1
  1
\A1;150.0
 73
     1
 44
1.0
1001
ACAD
1000
MTEXTBEGIN
1070
    73
1070
     1
1070
    44
1040
1.0
1070
    74
1070
     0
1000
MTEXTEND
  0
POINT
  5
F9C
330
F3C
100
AcDbEntity
  8
Defpoints
 62
     0
100
AcDbPoint
 10
208.4702903845982
 20
10.7561889355216
 30
0.0
  0
POINT
  5
F9D
330
F3C
100
AcDbEntity
  8
Defpoints
 62
     0
100
AcDbPoint
 10
208.4675101845982
 20
160.7561889355215
 30
0.0
  0
POINT
  5
F9E
330
F3C
100
AcDbEntity
  8
Defpoints
 62
     0
100
AcDbPoint
 10
262.5756963404687
 20
160.7561889355215
 30
0.0
  0
ENDBLK
  5
F3E
330
F3C
100
AcDbEntity
  8
0
100
AcDbBlockEnd
  0
BLOCK
  5
F4A
330
F49
100
AcDbEntity
  8
0
100
AcDbBlockBegin
  2
*D8
 70
     1
 10
0.0
 20
0.0
 30
0.0
  3
*D8
  1

  0
LINE
  5
11E2
330
F49
100
AcDbEntity
  8
0
 62
     0
370
    -2
100
AcDbLine
 10
-167.7840952264823
 20
99.4178241069796
 30
0.0
 11
-167.7840952264823
 21
-13.68055135813827
 31
0.0
  0
LINE
  5
11E3
330
F49
100
AcDbEntity
  8
0
 62
     0
370
    -2
100
AcDbLine
 10
-113.7840604235475
 20
10.75618893552052
 30
0.0
 11
-113.7840604235475
 21
-13.68055135813827
 31
0.0
  0
LINE
  5
11E4
330
F49
100
AcDbEntity
  8
0
 62
     0
370
    -2
100
AcDbLine
 10
-161.7840952264823
 20
-13.50055135813827
 30
0.0
 11
-151.276147479014
 21
-13.50055135813827
 31
0.0
  0
LINE
  5
11E5
330
F49
100
AcDbEntity
  8
0
 62
     0
370
    -2
100
AcDbLine
 10
-119.7840604235475
 20
-13.50055135813827
 30
0.0
 11
-131.2628141456807
 21
-13.50055135813827
 31
0.0
  0
SOLID
  5
11E6
330
F49
100
AcDbEntity
  8
0
 62
     0
100
AcDbTrace
 10
-161.7840952264823
 20
-12.50055135813826
 30
0.0
 11
-161.7840952264823
 21
-14.50055135813826
 31
0.0
 12
-167.7840952264823
 22
-13.50055135813827
 32
0.0
 13
-167.7840952264823
 23
-13.50055135813827
 33
0.0
  0
SOLID
  5
11E7
330
F49
100
AcDbEntity
  8
0
 62
     0
100
AcDbTrace
 10
-119.7840604235475
 20
-12.50055135813826
 30
0.0
 11
-119.7840604235475
 21
-14.50055135813826
 31
0.0
 12
-113.7840604235475
 22
-13.50055135813827
 32
0.0
 13
-113.7840604235475
 23
-13.50055135813827
 33
0.0
  0
MTEXT
  5
11E8
330
F49
100
AcDbEntity
  8
0
 62
     0
100
AcDbMText
 10
-141.2694808123474
 20
-13.50055135813827
 30
0.0
 40
7.0
 41
0.0
 71
     5
 72
     1
  1
\A1;54.0
 73
     1
 44
1.0
1001
ACAD
1000
MTEXTBEGIN
1070
    73
1070
     1
1070
    44
1040
1.0
1070
    74
1070
     0
1000
MTEXTEND
  0
POINT
  5
11E9
330
F49
100
AcDbEntity
  8
Defpoints
 62
     0
100
AcDbPoint
 10
-167.7840952264823
 20
99.48032410697962
 30
0.0
  0
POINT
  5
11EA
330
F49
100
AcDbEntity
  8
Defpoints
 62
     0
100
AcDbPoint
 10
-113.7840604235475
 20
10.81868893552052
 30
0.0
  0
POINT
  5
11EB
330
F49
100
AcDbEntity
  8
Defpoints
 62
     0
100
AcDbPoint
 10
-113.7840604235475
 20
-13.50055135813827
 30
0.0
  0
ENDBLK
  5
F4B
330
F49
100
AcDbEntity
  8
0
100
AcDbBlockEnd
  0
BLOCK
  5
F57
330
F56
100
AcDbEntity
  8
0
100
AcDbBlockBegin
  2
*D9
 70
     1
 10
0.0
 20
0.0
 30
0.0
  3
*D9
  1

  0
LINE
  5
FE5
330
F56
100
AcDbEntity
  8
0
 62
     0
370
    -2
100
AcDbLine
 10
-113.7840604235475
 20
10.75618893552052
 30
0.0
 11
-113.7840604235475
 21
-13.68055135813827
 31
0.0
  0
LINE
  5
FE6
330
F56
100
AcDbEntity
  8
0
 62
     0
370
    -2
100
AcDbLine
 10
-73.78406042354756
 20
107.638984134121
 30
0.0
 11
-73.78406042354758
 21
-13.68055135813827
 31
0.0
  0
LINE
  5
FE7
330
F56
100
AcDbEntity
  8
0
 62
     0
370
    -2
100
AcDbLine
 10
-107.7840604235475
 20
-13.50055135813827
 30
0.0
 11
-104.842262004363
 21
-13.50055135813827
 31
0.0
  0
LINE
  5
FE8
330
F56
100
AcDbEntity
  8
0
 62
     0
370
    -2
100
AcDbLine
 10
-79.78406042354759
 20
-13.50055135813827
 30
0.0
 11
-85.99559533769634
 21
-13.50055135813827
 31
0.0
  0
SOLID
  5
FE9
330
F56
100
AcDbEntity
  8
0
 62
     0
100
AcDbTrace
 10
-107.7840604235475
 20
-12.50055135813826
 30
0.0
 11
-107.7840604235475
 21
-14.50055135813826
 31
0.0
 12
-113.7840604235475
 22
-13.50055135813827
 32
0.0
 13
-113.7840604235475
 23
-13.50055135813827
 33
0.0
  0
SOLID
  5
FEA
330
F56
100
AcDbEntity
  8
0
 62
     0
100
AcDbTrace
 10
-79.78406042354759
 20
-12.50055135813826
 30
0.0
 11
-79.78406042354759
 21
-14.50055135813826
 31
0.0
 12
-73.78406042354758
 22
-13.50055135813827
 32
0.0
 13
-73.78406042354758
 23
-13.50055135813827
 33
0.0
  0
MTEXT
  5
FEB
330
F56
100
AcDbEntity
  8
0
 62
     0
100
AcDbMText
 10
-95.41892867102966
 20
-13.50055135813827
 30
0.0
 40
7.0
 41
0.0
 71
     5
 72
     1
  1
\A1;40.0
 73
     1
 44
1.0
1001
ACAD
1000
MTEXTBEGIN
1070
    73
1070
     1
1070
    44
1040
1.0
1070
    74
1070
     0
1000
MTEXTEND
  0
POINT
  5
FEC
330
F56
100
AcDbEntity
  8
Defpoints
 62
     0
100
AcDbPoint
 10
-113.7840604235475
 20
10.81868893552052
 30
0.0
  0
POINT
  5
FED
330
F56
100
AcDbEntity
  8
Defpoints
 62
     0
100
AcDbPoint
 10
-73.78406042354756
 20
107.701484134121
 30
0.0
  0
POINT
  5
FEE
330
F56
100
AcDbEntity
  8
Defpoints
 62
     0
100
AcDbPoint
 10
-73.78406042354758
 20
-13.50055135813827
 30
0.0
  0
ENDBLK
  5
F58
330
F56
100
AcDbEntity
  8
0
100
AcDbBlockEnd
  0
BLOCK
  5
10D3
330
10D2
100
AcDbEntity
  8
0
100
AcDbBlockBegin
  2
*D10
 70
     1
 10
0.0
 20
0.0
 30
0.0
  3
*D10
  1

  0
LINE
  5
10D4
330
10D2
100
AcDbEntity
  8
0
 62
     0
370
    -2
100
AcDbLine
 10
-141.2945177876792
 20
68.29439467988561
 30
0.0
 11
-141.2945177876792
 21
-15.56773957702126
 31
0.0
  0
LINE
  5
10D5
330
10D2
100
AcDbEntity
  8
0
 62
     0
370
    -2
100
AcDbLine
 10
-86.32367701007948
 20
8.869000716637543
 30
0.0
 11
-86.32367701007948
 21
-15.56773957702125
 31
0.0
  0
LINE
  5
10D6
330
10D2
100
AcDbEntity
  8
0
 62
     0
370
    -2
100
AcDbLine
 10
-135.2945177876792
 20
-15.38773957702125
 30
0.0
 11
-123.815764065546
 21
-15.38773957702125
 31
0.0
  0
LINE
  5
10D7
330
10D2
100
AcDbEntity
  8
0
 62
     0
370
    -2
100
AcDbLine
 10
-92.3236770100795
 20
-15.38773957702125
 30
0.0
 11
-103.8024307322127
 21
-15.38773957702125
 31
0.0
  0
SOLID
  5
10D8
330
10D2
100
AcDbEntity
  8
0
 62
     0
100
AcDbTrace
 10
-135.2945177876792
 20
-14.38773957702125
 30
0.0
 11
-135.2945177876792
 21
-16.38773957702125
 31
0.0
 12
-141.2945177876792
 22
-15.38773957702125
 32
0.0
 13
-141.2945177876792
 23
-15.38773957702125
 33
0.0
  0
SOLID
  5
10D9
330
10D2
100
AcDbEntity
  8
0
 62
     0
100
AcDbTrace
 10
-92.3236770100795
 20
-14.38773957702125
 30
0.0
 11
-92.3236770100795
 21
-16.38773957702125
 31
0.0
 12
-86.32367701007948
 22
-15.38773957702125
 32
0.0
 13
-86.32367701007948
 23
-15.38773957702125
 33
0.0
  0
MTEXT
  5
10DA
330
10D2
100
AcDbEntity
  8
0
 62
     0
100
AcDbMText
 10
-113.8090973988793
 20
-15.38773957702125
 30
0.0
 40
7.0
 41
0.0
 71
     5
 72
     1
  1
\A1;55.0
 73
     1
 44
1.0
1001
ACAD
1000
MTEXTBEGIN
1070
    73
1070
     1
1070
    44
1040
1.0
1070
    74
1070
     0
1000
MTEXTEND
  0
POINT
  5
10DB
330
10D2
100
AcDbEntity
  8
Defpoints
 62
     0
100
AcDbPoint
 10
-141.2945177876792
 20
68.35689467988562
 30
0.0
  0
POINT
  5
10DC
330
10D2
100
AcDbEntity
  8
Defpoints
 62
     0
100
AcDbPoint
 10
-86.32367701007948
 20
8.931500716637543
 30
0.0
  0
POINT
  5
10DD
330
10D2
100
AcDbEntity
  8
Defpoints
 62
     0
100
AcDbPoint
 10
-86.32367701007948
 20
-15.38773957702125
 30
0.0
  0
ENDBLK
  5
10DE
330
10D2
100
AcDbEntity
  8
0
100
AcDbBlockEnd
  0
BLOCK
  5
11A8
330
11A7
100
AcDbEntity
  8
0
100
AcDbBlockBegin
  2
*D11
 70
     1
 10
0.0
 20
0.0
 30
0.0
  3
*D11
  1

  0
LINE
  5
11CC
330
11A7
100
AcDbEntity
  8
0
 62
     0
370
    -2
100
AcDbLine
 10
-171.6829542044477
 20
99.42081961902331
 30
0.0
 11
-171.6829542044477
 21
15.55868536211642
 31
0.0
  0
LINE
  5
11CD
330
11A7
100
AcDbEntity
  8
0
 62
     0
370
    -2
100
AcDbLine
 10
-116.712113426848
 20
39.99542565577522
 30
0.0
 11
-116.712113426848
 21
15.55868536211643
 31
0.0
  0
LINE
  5
11CE
330
11A7
100
AcDbEntity
  8
0
 62
     0
370
    -2
100
AcDbLine
 10
-165.6829542044477
 20
15.73868536211643
 30
0.0
 11
-154.2042004823145
 21
15.73868536211643
 31
0.0
  0
LINE
  5
11CF
330
11A7
100
AcDbEntity
  8
0
 62
     0
370
    -2
100
AcDbLine
 10
-122.712113426848
 20
15.73868536211643
 30
0.0
 11
-134.1908671489811
 21
15.73868536211643
 31
0.0
  0
SOLID
  5
11D0
330
11A7
100
AcDbEntity
  8
0
 62
     0
100
AcDbTrace
 10
-165.6829542044477
 20
16.73868536211642
 30
0.0
 11
-165.6829542044477
 21
14.73868536211643
 31
0.0
 12
-171.6829542044477
 22
15.73868536211643
 32
0.0
 13
-171.6829542044477
 23
15.73868536211643
 33
0.0
  0
SOLID
  5
11D1
330
11A7
100
AcDbEntity
  8
0
 62
     0
100
AcDbTrace
 10
-122.712113426848
 20
16.73868536211642
 30
0.0
 11
-122.712113426848
 21
14.73868536211643
 31
0.0
 12
-116.712113426848
 22
15.73868536211643
 32
0.0
 13
-116.712113426848
 23
15.73868536211643
 33
0.0
  0
MTEXT
  5
11D2
330
11A7
100
AcDbEntity
  8
0
 62
     0
100
AcDbMText
 10
-144.1975338156478
 20
15.73868536211643
 30
0.0
 40
7.0
 41
0.0
 71
     5
 72
     1
  1
\A1;55.0
 73
     1
 44
1.0
1001
ACAD
1000
MTEXTBEGIN
1070
    73
1070
     1
1070
    44
1040
1.0
1070
    74
1070
     0
1000
MTEXTEND
  0
POINT
  5
11D3
330
11A7
100
AcDbEntity
  8
Defpoints
 62
     0
100
AcDbPoint
 10
-171.6829542044477
 20
99.48331961902329
 30
0.0
  0
POINT
  5
11D4
330
11A7
100
AcDbEntity
  8
Defpoints
 62
     0
100
AcDbPoint
 10
-116.712113426848
 20
40.05792565577521
 30
0.0
  0
POINT
  5
11D5
330
11A7
100
AcDbEntity
  8
Defpoints
 62
     0
100
AcDbPoint
 10
-116.712113426848
 20
15.73868536211643
 30
0.0
  0
ENDBLK
  5
11A9
330
11A7
100
AcDbEntity
  8
0
100
AcDbBlockEnd
  0
BLOCK
  5
123B
330
123A
100
AcDbEntity
  8
0
100
AcDbBlockBegin
  2
*D12
 70
     1
 10
0.0
 20
0.0
 30
0.0
  3
*D12
  1

  0
LINE
  5
123C
330
123A
100
AcDbEntity
  8
0
 62
     0
370
    -2
100
AcDbLine
 10
0.2683701315451969
 20
88.52006607475336
 30
0.0
 11
0.2683701315451982
 21
108.1067136196686
 31
0.0
  0
LINE
  5
123D
330
123A
100
AcDbEntity
  8
0
 62
     0
370
    -2
100
AcDbLine
 10
143.2683701315451
 20
88.52006607475336
 30
0.0
 11
143.2683701315451
 21
108.1067136196686
 31
0.0
  0
LINE
  5
123E
330
123A
100
AcDbEntity
  8
0
 62
     0
370
    -2
100
AcDbLine
 10
5.268370131545196
 20
107.9267136196686
 30
0.0
 11
62.0258065568462
 21
107.9267136196686
 31
0.0
  0
LINE
  5
123F
330
123A
100
AcDbEntity
  8
0
 62
     0
370
    -2
100
AcDbLine
 10
138.2683701315452
 20
107.9267136196686
 30
0.0
 11
78.59052688426777
 21
107.9267136196686
 31
0.0
  0
SOLID
  5
1240
330
123A
100
AcDbEntity
  8
0
 62
     0
100
AcDbTrace
 10
5.268370131545196
 20
108.7600469530019
 30
0.0
 11
5.268370131545196
 21
107.0933802863352
 31
0.0
 12
0.2683701315451981
 22
107.9267136196686
 32
0.0
 13
0.2683701315451981
 23
107.9267136196686
 33
0.0
  0
SOLID
  5
1241
330
123A
100
AcDbEntity
  8
0
 62
     0
100
AcDbTrace
 10
138.2683701315452
 20
108.7600469530019
 30
0.0
 11
138.2683701315452
 21
107.0933802863352
 31
0.0
 12
143.2683701315451
 22
107.9267136196686
 32
0.0
 13
143.2683701315451
 23
107.9267136196686
 33
0.0
  0
MTEXT
  5
1242
330
123A
100
AcDbEntity
  8
0
 62
     0
100
AcDbMText
 10
70.30816672055697
 20
107.9267136196686
 30
0.0
 40
5.0
 41
0.0
 71
     5
 72
     1
  1
\A1;143.0
 73
     1
 44
1.0
1001
ACAD
1000
MTEXTBEGIN
1070
    73
1070
     1
1070
    44
1040
1.0
1070
    74
1070
     0
1000
MTEXTEND
  0
POINT
  5
1243
330
123A
100
AcDbEntity
  8
Defpoints
 62
     0
100
AcDbPoint
 10
0.2683701315451969
 20
88.45756607475337
 30
0.0
  0
POINT
  5
1244
330
123A
100
AcDbEntity
  8
Defpoints
 62
     0
100
AcDbPoint
 10
143.2683701315451
 20
88.45756607475337
 30
0.0
  0
POINT
  5
1245
330
123A
100
AcDbEntity
  8
Defpoints
 62
     0
100
AcDbPoint
 10
143.2683701315451
 20
107.9267136196686
 30
0.0
  0
ENDBLK
  5
1246
330
123A
100
AcDbEntity
  8
0
100
AcDbBlockEnd
  0
BLOCK
  5
1248
330
1247
100
AcDbEntity
  8
0
100
AcDbBlockBegin
  2
*D13
 70
     1
 10
0.0
 20
0.0
 30
0.0
  3
*D13
  1

  0
LINE
  5
1249
330
1247
100
AcDbEntity
  8
0
 62
     0
370
    -2
100
AcDbLine
 10
136.5170349495452
 20
5.268370074753612
 30
0.0
 11
155.3169571831001
 21
5.268370074753605
 31
0.0
  0
LINE
  5
124A
330
1247
100
AcDbEntity
  8
0
 62
     0
370
    -2
100
AcDbLine
 10
136.4545349495452
 20
95.26837007475336
 30
0.0
 11
155.3169571831001
 21
95.26837007475336
 31
0.0
  0
LINE
  5
124B
330
1247
100
AcDbEntity
  8
0
 62
     0
370
    -2
100
AcDbLine
 10
155.1369571831001
 20
10.2683700747536
 30
0.0
 11
155.1369571831001
 21
47.48851186756698
 31
0.0
  0
LINE
  5
124C
330
1247
100
AcDbEntity
  8
0
 62
     0
370
    -2
100
AcDbLine
 10
155.1369571831001
 20
90.26837007475336
 30
0.0
 11
155.1369571831001
 21
52.7742417447839
 31
0.0
  0
SOLID
  5
124D
330
1247
100
AcDbEntity
  8
0
 62
     0
100
AcDbTrace
 10
154.3036238497667
 20
10.2683700747536
 30
0.0
 11
155.9702905164334
 21
10.2683700747536
 31
0.0
 12
155.1369571831001
 22
5.268370074753605
 32
0.0
 13
155.1369571831001
 23
5.268370074753605
 33
0.0
  0
SOLID
  5
124E
330
1247
100
AcDbEntity
  8
0
 62
     0
100
AcDbTrace
 10
154.3036238497668
 20
90.26837007475336
 30
0.0
 11
155.9702905164335
 21
90.26837007475336
 31
0.0
 12
155.1369571831001
 22
95.26837007475336
 32
0.0
 13
155.1369571831001
 23
95.26837007475336
 33
0.0
  0
MTEXT
  5
124F
330
1247
100
AcDbEntity
  8
0
 62
     0
100
AcDbMText
 10
155.1369571831001
 20
50.13137680617546
 30
0.0
 40
5.0
 41
0.0
 71
     5
 72
     1
  1
\A1;90.0
 73
     1
 44
1.0
1001
ACAD
1000
MTEXTBEGIN
1070
    73
1070
     1
1070
    44
1040
1.0
1070
    74
1070
     0
1000
MTEXTEND
  0
POINT
  5
1250
330
1247
100
AcDbEntity
  8
Defpoints
 62
     0
100
AcDbPoint
 10
136.4545349495452
 20
5.268370074753612
 30
0.0
  0
POINT
  5
1251
330
1247
100
AcDbEntity
  8
Defpoints
 62
     0
100
AcDbPoint
 10
136.3920349495452
 20
95.26837007475336
 30
0.0
  0
POINT
  5
1252
330
1247
100
AcDbEntity
  8
Defpoints
 62
     0
100
AcDbPoint
 10
155.1369571831001
 20
95.26837007475336
 30
0.0
  0
ENDBLK
  5
1253
330
1247
100
AcDbEntity
  8
0
100
AcDbBlockEnd
  0
BLOCK
  5
1255
330
1254
100
AcDbEntity
  8
0
100
AcDbBlockBegin
  2
*D14
 70
     1
 10
0.0
 20
0.0
 30
0.0
  3
*D14
  1

  0
LINE
  5
1256
330
1254
100
AcDbEntity
  8
0
 62
     0
370
    -2
100
AcDbLine
 10
1.268370131545196
 20
1.20587007475376
 30
0.0
 11
1.268370131545195
 21
-6.445764989344461
 31
0.0
  0
LINE
  5
1257
330
1254
100
AcDbEntity
  8
0
 62
     0
370
    -2
100
AcDbLine
 10
139.2683701315451
 20
1.205870074753518
 30
0.0
 11
139.2683701315451
 21
-6.445764989344461
 31
0.0
  0
LINE
  5
1258
330
1254
100
AcDbEntity
  8
0
 62
     0
370
    -2
100
AcDbLine
 10
6.268370131545195
 20
-6.265764989344461
 30
0.0
 11
63.02580655684621
 21
-6.265764989344461
 31
0.0
  0
LINE
  5
1259
330
1254
100
AcDbEntity
  8
0
 62
     0
370
    -2
100
AcDbLine
 10
134.2683701315452
 20
-6.265764989344461
 30
0.0
 11
79.59052688426777
 21
-6.265764989344461
 31
0.0
  0
SOLID
  5
125A
330
1254
100
AcDbEntity
  8
0
 62
     0
100
AcDbTrace
 10
6.268370131545195
 20
-5.432431656011128
 30
0.0
 11
6.268370131545195
 21
-7.099098322677793
 31
0.0
 12
1.268370131545195
 22
-6.265764989344461
 32
0.0
 13
1.268370131545195
 23
-6.265764989344461
 33
0.0
  0
SOLID
  5
125B
330
1254
100
AcDbEntity
  8
0
 62
     0
100
AcDbTrace
 10
134.2683701315452
 20
-5.432431656011128
 30
0.0
 11
134.2683701315452
 21
-7.099098322677793
 31
0.0
 12
139.2683701315451
 22
-6.265764989344461
 32
0.0
 13
139.2683701315451
 23
-6.265764989344461
 33
0.0
  0
MTEXT
  5
125C
330
1254
100
AcDbEntity
  8
0
 62
     0
100
AcDbMText
 10
71.30816672055698
 20
-6.265764989344461
 30
0.0
 40
5.0
 41
0.0
 71
     5
 72
     1
  1
\A1;138.0
 73
     1
 44
1.0
1001
ACAD
1000
MTEXTBEGIN
1070
    73
1070
     1
1070
    44
1040
1.0
1070
    74
1070
     0
1000
MTEXTEND
  0
POINT
  5
125D
330
1254
100
AcDbEntity
  8
Defpoints
 62
     0
100
AcDbPoint
 10
1.268370131545196
 20
1.26837007475376
 30
0.0
  0
POINT
  5
125E
330
1254
100
AcDbEntity
  8
Defpoints
 62
     0
100
AcDbPoint
 10
139.2683701315451
 20
1.268370074753518
 30
0.0
  0
POINT
  5
125F
330
1254
100
AcDbEntity
  8
Defpoints
 62
     0
100
AcDbPoint
 10
139.2683701315451
 20
-6.265764989344461
 30
0.0
  0
ENDBLK
  5
1260
330
1254
100
AcDbEntity
  8
0
100
AcDbBlockEnd
  0
BLOCK
  5
1262
330
1261
100
AcDbEntity
  8
0
100
AcDbBlockBegin
  2
*D15
 70
     1
 10
0.0
 20
0.0
 30
0.0
  3
*D15
  1

  0
LINE
  5
1263
330
1261
100
AcDbEntity
  8
0
 62
     0
370
    -2
100
AcDbLine
 10
1.205870131545196
 20
1.26837007475376
 30
0.0
 11
-9.998660980268763
 21
1.268370074753764
 31
0.0
  0
LINE
  5
1264
330
1261
100
AcDbEntity
  8
0
 62
     0
370
    -2
100
AcDbLine
 10
1.143370131545196
 20
99.26837007475352
 30
0.0
 11
-9.99866098026874
 21
99.26837007475352
 31
0.0
  0
LINE
  5
1265
330
1261
100
AcDbEntity
  8
0
 62
     0
370
    -2
100
AcDbLine
 10
-9.818660980268759
 20
6.268370074753764
 30
0.0
 11
-9.818660980268751
 21
51.48851186756715
 31
0.0
  0
LINE
  5
1266
330
1261
100
AcDbEntity
  8
0
 62
     0
370
    -2
100
AcDbLine
 10
-9.818660980268742
 20
94.26837007475352
 30
0.0
 11
-9.818660980268751
 21
56.77424174478407
 31
0.0
  0
SOLID
  5
1267
330
1261
100
AcDbEntity
  8
0
 62
     0
100
AcDbTrace
 10
-10.65199431360209
 20
6.268370074753764
 30
0.0
 11
-8.985327646935427
 21
6.268370074753764
 31
0.0
 12
-9.818660980268763
 22
1.268370074753764
 32
0.0
 13
-9.818660980268763
 23
1.268370074753764
 33
0.0
  0
SOLID
  5
1268
330
1261
100
AcDbEntity
  8
0
 62
     0
100
AcDbTrace
 10
-10.65199431360207
 20
94.26837007475352
 30
0.0
 11
-8.985327646935408
 21
94.26837007475352
 31
0.0
 12
-9.818660980268742
 22
99.26837007475352
 32
0.0
 13
-9.818660980268742
 23
99.26837007475352
 33
0.0
  0
MTEXT
  5
1269
330
1261
100
AcDbEntity
  8
0
 62
     0
100
AcDbMText
 10
-9.818660980268759
 20
54.13137680617563
 30
0.0
 40
5.0
 41
0.0
 71
     5
 72
     1
  1
\A1;98.0
 73
     1
 44
1.0
1001
ACAD
1000
MTEXTBEGIN
1070
    73
1070
     1
1070
    44
1040
1.0
1070
    74
1070
     0
1000
MTEXTEND
  0
POINT
  5
126A
330
1261
100
AcDbEntity
  8
Defpoints
 62
     0
100
AcDbPoint
 10
1.268370131545196
 20
1.26837007475376
 30
0.0
  0
POINT
  5
126B
330
1261
100
AcDbEntity
  8
Defpoints
 62
     0
100
AcDbPoint
 10
1.205870131545196
 20
99.26837007475352
 30
0.0
  0
POINT
  5
126C
330
1261
100
AcDbEntity
  8
Defpoints
 62
     0
100
AcDbPoint
 10
-9.818660980268742
 20
99.26837007475352
 30
0.0
  0
ENDBLK
  5
126D
330
1261
100
AcDbEntity
  8
0
100
AcDbBlockEnd
  0
BLOCK
  5
1282
330
1270
100
AcDbEntity
  8
0
100
AcDbBlockBegin
  2
A$C7E907D64
 70
     0
 10
0.0
 20
0.0
 30
0.0
  3
A$C7E907D64
  1

  0
LINE
  5
1271
330
1270
100
AcDbEntity
  8
0
 62
     7
100
AcDbLine
 10
17.13416576617007
 20
98.8203912802164
 30
0.0
 11
17.13416576617007
 21
22.44199928021668
 31
0.0
  0
LINE
  5
1272
330
1270
100
AcDbEntity
  8
0
 62
     7
100
AcDbLine
 10
160.13416576617
 20
98.82039128021645
 30
0.0
 11
160.13416576617
 21
22.44199928021664
 31
0.0
  0
LINE
  5
1273
330
1270
100
AcDbEntity
  8
0
 62
     7
100
AcDbLine
 10
23.94800094817009
 20
15.63119528021668
 30
0.0
 11
153.3203305841699
 21
15.63119528021658
 31
0.0
  0
CIRCLE
  5
1274
330
1270
100
AcDbEntity
  8
0
 62
     7
100
AcDbCircle
 10
18.13416576617007
 20
11.63119528021678
 30
0.0
 40
1.5
  0
LINE
  5
1275
330
1270
100
AcDbEntity
  8
0
 62
     7
100
AcDbLine
 10
17.13416576617007
 20
22.44199928021668
 30
0.0
 11
23.94800094817009
 21
15.63119528021668
 31
0.0
  0
LINE
  5
1276
330
1270
100
AcDbEntity
  8
0
 62
     7
100
AcDbLine
 10
160.13416576617
 20
22.44199928021664
 30
0.0
 11
153.32033058417
 21
15.63119528021664
 31
0.0
  0
LINE
  5
1277
330
1270
100
AcDbEntity
  8
0
 62
     7
100
AcDbLine
 10
160.13416576617
 20
98.82039128021645
 30
0.0
 11
153.32033058417
 21
105.6311952802164
 31
0.0
  0
LINE
  5
1278
330
1270
100
AcDbEntity
  8
0
 62
     7
100
AcDbLine
 10
17.13416576617007
 20
98.8203912802164
 30
0.0
 11
23.94800094817009
 21
105.6311952802164
 31
0.0
  0
LINE
  5
1279
330
1270
100
AcDbEntity
  8
0
 62
     7
100
AcDbLine
 10
153.32033058417
 20
105.6311952802164
 30
0.0
 11
23.94800094817009
 21
105.6311952802164
 31
0.0
  0
CIRCLE
  5
127A
330
1270
100
AcDbEntity
  8
0
 62
     7
100
AcDbCircle
 10
156.1341657661699
 20
11.63119528021654
 30
0.0
 40
1.5
  0
DIMENSION
  5
127B
330
1270
100
AcDbEntity
  8
0
 62
     1
100
AcDbDimension
  2
*D12
 10
160.13416576617
 20
118.2895388251316
 30
0.0
 11
87.17396235518185
 21
118.2895388251316
 31
0.0
 12
16.86579563462487
 22
10.36282520546302
 32
0.0
 70
   128
 71
     0
 42
143.0
  3
Standard
100
AcDbAlignedDimension
 13
17.13416576617007
 23
98.8203912802164
 33
0.0
 14
160.13416576617
 24
98.8203912802164
 34
0.0
100
AcDbRotatedDimension
1001
ACAD
1000
DSTYLE
1002
{
1070
    41
1040
5.0
1070
   140
1040
5.0
1070
   271
1070
     1
1002
}
  0
DIMENSION
  5
127C
330
1270
100
AcDbEntity
  8
0
 62
     1
100
AcDbDimension
  2
*D13
 10
172.0027528177249
 20
105.6311952802164
 30
0.0
 11
172.0027528177249
 21
60.49420201163848
 31
0.0
 12
16.86579563462487
 22
10.36282520546302
 32
0.0
 70
   128
 71
     0
 42
89.99999999999976
  3
Standard
100
AcDbAlignedDimension
 13
153.32033058417
 23
15.63119528021664
 33
0.0
 14
153.2578305841701
 24
105.6311952802164
 34
0.0
 50
90.0
100
AcDbRotatedDimension
1001
ACAD
1000
DSTYLE
1002
{
1070
    41
1040
5.0
1070
   140
1040
5.0
1070
   271
1070
     1
1002
}
  0
CIRCLE
  5
127D
330
1270
100
AcDbEntity
  8
0
 62
     7
100
AcDbCircle
 10
18.13416576617007
 20
109.6311952802165
 30
0.0
 40
1.5
  0
CIRCLE
  5
127E
330
1270
100
AcDbEntity
  8
0
 62
     7
100
AcDbCircle
 10
156.1341657661699
 20
109.6311952802163
 30
0.0
 40
1.5
  0
DIMENSION
  5
127F
330
1270
100
AcDbEntity
  8
0
 62
     1
100
AcDbDimension
  2
*D14
 10
156.1341657661699
 20
4.097060216118563
 30
0.0
 11
88.17396235518186
 21
4.097060216118563
 31
0.0
 12
16.86579563462487
 22
10.36282520546302
 32
0.0
 70
   128
 71
     0
 42
137.9999999999999
  3
Standard
100
AcDbAlignedDimension
 13
18.13416576617007
 23
11.63119528021678
 33
0.0
 14
156.1341657661699
 24
11.63119528021654
 34
0.0
100
AcDbRotatedDimension
1001
ACAD
1000
DSTYLE
1002
{
1070
    41
1040
5.0
1070
   140
1040
5.0
1070
   271
1070
     1
1002
}
  0
DIMENSION
  5
1280
330
1270
100
AcDbEntity
  8
0
 62
     1
100
AcDbDimension
  2
*D15
 10
7.047134654356131
 20
109.6311952802165
 30
0.0
 11
7.047134654356113
 21
64.49420201163866
 31
0.0
 12
16.86579563462487
 22
10.36282520546302
 32
0.0
 70
   128
 71
     0
 42
97.99999999999977
  3
Standard
100
AcDbAlignedDimension
 13
18.13416576617007
 23
11.63119528021678
 33
0.0
 14
18.07166576617007
 24
109.6311952802165
 34
0.0
 50
90.0
100
AcDbRotatedDimension
1001
ACAD
1000
DSTYLE
1002
{
1070
    41
1040
5.0
1070
   140
1040
5.0
1070
   271
1070
     1
1002
}
  0
ENDBLK
  5
1283
330
1270
100
AcDbEntity
  8
0
100
AcDbBlockEnd
  0
BLOCK
  5
1285
330
1284
100
AcDbEntity
  8
0
100
AcDbBlockBegin
  2
*D17
 70
     1
 10
0.0
 20
0.0
 30
0.0
  3
*D17
  1

  0
LINE
  5
1286
330
1284
100
AcDbEntity
  8
0
 62
     0
370
    -2
100
AcDbLine
 10
-0.0000002106614545
 20
118.8129276222296
 30
0.0
 11
-0.0000002106614525
 21
152.0115445974132
 31
0.0
  0
LINE
  5
1287
330
1284
100
AcDbEntity
  8
0
 62
     0
370
    -2
100
AcDbLine
 10
186.9958435337984
 20
118.8129276222296
 30
0.0
 11
186.9958435337984
 21
152.0115445974132
 31
0.0
  0
LINE
  5
1288
330
1284
100
AcDbEntity
  8
0
 62
     0
370
    -2
100
AcDbLine
 10
4.999999789338547
 20
151.8315445974132
 30
0.0
 11
88.10730587874784
 21
151.8315445974132
 31
0.0
  0
LINE
  5
1289
330
1284
100
AcDbEntity
  8
0
 62
     0
370
    -2
100
AcDbLine
 10
181.9958435337984
 20
151.8315445974132
 30
0.0
 11
104.6720262061694
 21
151.8315445974132
 31
0.0
  0
SOLID
  5
128A
330
1284
100
AcDbEntity
  8
0
 62
     0
100
AcDbTrace
 10
4.999999789338547
 20
152.6648779307465
 30
0.0
 11
4.999999789338547
 21
150.9982112640798
 31
0.0
 12
-0.0000002106614525
 22
151.8315445974132
 32
0.0
 13
-0.0000002106614525
 23
151.8315445974132
 33
0.0
  0
SOLID
  5
128B
330
1284
100
AcDbEntity
  8
0
 62
     0
100
AcDbTrace
 10
181.9958435337984
 20
152.6648779307465
 30
0.0
 11
181.9958435337984
 21
150.9982112640798
 31
0.0
 12
186.9958435337984
 22
151.8315445974132
 32
0.0
 13
186.9958435337984
 23
151.8315445974132
 33
0.0
  0
MTEXT
  5
128C
330
1284
100
AcDbEntity
  8
0
 62
     0
100
AcDbMText
 10
96.38966604245863
 20
151.8315445974132
 30
0.0
 40
5.0
 41
0.0
 71
     5
 72
     1
  1
\A1;187.0
 73
     1
 44
1.0
1001
ACAD
1000
MTEXTBEGIN
1070
    73
1070
     1
1070
    44
1040
1.0
1070
    74
1070
     0
1000
MTEXTEND
  0
POINT
  5
128D
330
1284
100
AcDbEntity
  8
Defpoints
 62
     0
100
AcDbPoint
 10
-0.0000002106614545
 20
118.7504276222296
 30
0.0
  0
POINT
  5
128E
330
1284
100
AcDbEntity
  8
Defpoints
 62
     0
100
AcDbPoint
 10
186.9958435337984
 20
118.7504276222296
 30
0.0
  0
POINT
  5
128F
330
1284
100
AcDbEntity
  8
Defpoints
 62
     0
100
AcDbPoint
 10
186.9958435337984
 20
151.8315445974132
 30
0.0
  0
ENDBLK
  5
1290
330
1284
100
AcDbEntity
  8
0
100
AcDbBlockEnd
  0
BLOCK
  5
1292
330
1291
100
AcDbEntity
  8
0
100
AcDbBlockBegin
  2
*D18
 70
     1
 10
0.0
 20
0.0
 30
0.0
  3
*D18
  1

  0
LINE
  5
1293
330
1291
100
AcDbEntity
  8
0
 62
     0
370
    -2
100
AcDbLine
 10
167.8087713836336
 20
-0.0000002276052555
 30
0.0
 11
206.4800954617526
 21
-0.0000002276052665
 31
0.0
  0
LINE
  5
1294
330
1291
100
AcDbEntity
  8
0
 62
     0
370
    -2
100
AcDbLine
 10
167.8712713836336
 20
137.9999997723947
 30
0.0
 11
206.4800954617526
 21
137.9999997723946
 31
0.0
  0
LINE
  5
1295
330
1291
100
AcDbEntity
  8
0
 62
     0
370
    -2
100
AcDbLine
 10
206.3000954617526
 20
4.999999772394732
 30
0.0
 11
206.3000954617526
 21
71.8062247179447
 31
0.0
  0
LINE
  5
1296
330
1291
100
AcDbEntity
  8
0
 62
     0
370
    -2
100
AcDbLine
 10
206.3000954617526
 20
132.9999997723946
 30
0.0
 11
206.3000954617526
 21
77.09536523636216
 31
0.0
  0
SOLID
  5
1297
330
1291
100
AcDbEntity
  8
0
 62
     0
100
AcDbTrace
 10
205.4667621284192
 20
4.999999772394733
 30
0.0
 11
207.1334287950859
 21
4.999999772394732
 31
0.0
 12
206.3000954617526
 22
-0.0000002276052665
 32
0.0
 13
206.3000954617526
 23
-0.0000002276052665
 33
0.0
  0
SOLID
  5
1298
330
1291
100
AcDbEntity
  8
0
 62
     0
100
AcDbTrace
 10
205.4667621284192
 20
132.9999997723946
 30
0.0
 11
207.1334287950859
 21
132.9999997723946
 31
0.0
 12
206.3000954617526
 22
137.9999997723946
 32
0.0
 13
206.3000954617526
 23
137.9999997723946
 33
0.0
  0
MTEXT
  5
1299
330
1291
100
AcDbEntity
  8
0
 62
     0
100
AcDbMText
 10
206.3000954617526
 20
74.45079497715345
 30
0.0
 40
5.0
 41
0.0
 71
     5
 72
     1
  1
\A1;138.0
 73
     1
 44
1.0
1001
ACAD
1000
MTEXTBEGIN
1070
    73
1070
     1
1070
    44
1040
1.0
1070
    74
1070
     0
1000
MTEXTEND
  0
POINT
  5
129A
330
1291
100
AcDbEntity
  8
Defpoints
 62
     0
100
AcDbPoint
 10
167.7462713836336
 20
-0.0000002276052555
 30
0.0
  0
POINT
  5
129B
330
1291
100
AcDbEntity
  8
Defpoints
 62
     0
100
AcDbPoint
 10
167.8087713836336
 20
137.9999997723947
 30
0.0
  0
POINT
  5
129C
330
1291
100
AcDbEntity
  8
Defpoints
 62
     0
100
AcDbPoint
 10
206.3000954617526
 20
137.9999997723946
 30
0.0
  0
ENDBLK
  5
129D
330
1291
100
AcDbEntity
  8
0
100
AcDbBlockEnd
  0
BLOCK
  5
129F
330
129E
100
AcDbEntity
  8
0
100
AcDbBlockBegin
  2
*D19
 70
     1
 10
0.0
 20
0.0
 30
0.0
  3
*D19
  1

  0
LINE
  5
12A0
330
129E
100
AcDbEntity
  8
0
 62
     0
370
    -2
100
AcDbLine
 10
3.999999789338545
 20
2.437499772394956
 30
0.0
 11
3.999999789338544
 21
-14.00739574242782
 31
0.0
  0
LINE
  5
12A1
330
129E
100
AcDbEntity
  8
0
 62
     0
370
    -2
100
AcDbLine
 10
182.9999997893386
 20
2.437499772394955
 30
0.0
 11
182.9999997893386
 21
-14.00739574242782
 31
0.0
  0
LINE
  5
12A2
330
129E
100
AcDbEntity
  8
0
 62
     0
370
    -2
100
AcDbLine
 10
8.999999789338543
 20
-13.82739574242782
 30
0.0
 11
89.94964135789976
 21
-13.82739574242782
 31
0.0
  0
LINE
  5
12A3
330
129E
100
AcDbEntity
  8
0
 62
     0
370
    -2
100
AcDbLine
 10
177.9999997893386
 20
-13.82739574242782
 30
0.0
 11
106.5143616853213
 21
-13.82739574242782
 31
0.0
  0
SOLID
  5
12A4
330
129E
100
AcDbEntity
  8
0
 62
     0
100
AcDbTrace
 10
8.999999789338543
 20
-12.99406240909449
 30
0.0
 11
8.999999789338543
 21
-14.66072907576116
 31
0.0
 12
3.999999789338544
 22
-13.82739574242782
 32
0.0
 13
3.999999789338544
 23
-13.82739574242782
 33
0.0
  0
SOLID
  5
12A5
330
129E
100
AcDbEntity
  8
0
 62
     0
100
AcDbTrace
 10
177.9999997893386
 20
-12.99406240909449
 30
0.0
 11
177.9999997893386
 21
-14.66072907576116
 31
0.0
 12
182.9999997893386
 22
-13.82739574242782
 32
0.0
 13
182.9999997893386
 23
-13.82739574242782
 33
0.0
  0
MTEXT
  5
12A6
330
129E
100
AcDbEntity
  8
0
 62
     0
100
AcDbMText
 10
98.23200152161051
 20
-13.82739574242782
 30
0.0
 40
5.0
 41
0.0
 71
     5
 72
     1
  1
\A1;179.0
 73
     1
 44
1.0
1001
ACAD
1000
MTEXTBEGIN
1070
    73
1070
     1
1070
    44
1040
1.0
1070
    74
1070
     0
1000
MTEXTEND
  0
POINT
  5
12A7
330
129E
100
AcDbEntity
  8
Defpoints
 62
     0
100
AcDbPoint
 10
3.999999789338545
 20
2.499999772394956
 30
0.0
  0
POINT
  5
12A8
330
129E
100
AcDbEntity
  8
Defpoints
 62
     0
100
AcDbPoint
 10
182.9999997893386
 20
2.499999772394955
 30
0.0
  0
POINT
  5
12A9
330
129E
100
AcDbEntity
  8
Defpoints
 62
     0
100
AcDbPoint
 10
182.9999997893386
 20
-13.82739574242782
 30
0.0
  0
ENDBLK
  5
12AA
330
129E
100
AcDbEntity
  8
0
100
AcDbBlockEnd
  0
BLOCK
  5
12AC
330
12AB
100
AcDbEntity
  8
0
100
AcDbBlockBegin
  2
*D20
 70
     1
 10
0.0
 20
0.0
 30
0.0
  3
*D20
  1

  0
LINE
  5
12AD
330
12AB
100
AcDbEntity
  8
0
 62
     0
370
    -2
100
AcDbLine
 10
3.937499789338545
 20
2.499999772394956
 30
0.0
 11
-16.8102579584783
 21
2.499999772394962
 31
0.0
  0
LINE
  5
12AE
330
12AB
100
AcDbEntity
  8
0
 62
     0
370
    -2
100
AcDbLine
 10
3.999999789338545
 20
135.4999997723947
 30
0.0
 11
-16.81025795847826
 21
135.4999997723947
 31
0.0
  0
LINE
  5
12AF
330
12AB
100
AcDbEntity
  8
0
 62
     0
370
    -2
100
AcDbLine
 10
-16.6302579584783
 20
7.499999772394962
 30
0.0
 11
-16.63025795847828
 21
64.32228688527462
 31
0.0
  0
LINE
  5
12B0
330
12AB
100
AcDbEntity
  8
0
 62
     0
370
    -2
100
AcDbLine
 10
-16.63025795847827
 20
130.4999997723947
 30
0.0
 11
-16.63025795847828
 21
69.61142740369209
 31
0.0
  0
SOLID
  5
12B1
330
12AB
100
AcDbEntity
  8
0
 62
     0
100
AcDbTrace
 10
-17.46359129181163
 20
7.499999772394962
 30
0.0
 11
-15.79692462514496
 21
7.499999772394962
 31
0.0
 12
-16.6302579584783
 22
2.499999772394962
 32
0.0
 13
-16.6302579584783
 23
2.499999772394962
 33
0.0
  0
SOLID
  5
12B2
330
12AB
100
AcDbEntity
  8
0
 62
     0
100
AcDbTrace
 10
-17.4635912918116
 20
130.4999997723947
 30
0.0
 11
-15.79692462514494
 21
130.4999997723947
 31
0.0
 12
-16.63025795847827
 22
135.4999997723947
 32
0.0
 13
-16.63025795847827
 23
135.4999997723947
 33
0.0
  0
MTEXT
  5
12B3
330
12AB
100
AcDbEntity
  8
0
 62
     0
100
AcDbMText
 10
-16.63025795847829
 20
66.96685714448334
 30
0.0
 40
5.0
 41
0.0
 71
     5
 72
     1
  1
\A1;133.0
 73
     1
 44
1.0
1001
ACAD
1000
MTEXTBEGIN
1070
    73
1070
     1
1070
    44
1040
1.0
1070
    74
1070
     0
1000
MTEXTEND
  0
POINT
  5
12B4
330
12AB
100
AcDbEntity
  8
Defpoints
 62
     0
100
AcDbPoint
 10
3.999999789338545
 20
2.499999772394956
 30
0.0
  0
POINT
  5
12B5
330
12AB
100
AcDbEntity
  8
Defpoints
 62
     0
100
AcDbPoint
 10
4.062499789338545
 20
135.4999997723947
 30
0.0
  0
POINT
  5
12B6
330
12AB
100
AcDbEntity
  8
Defpoints
 62
     0
100
AcDbPoint
 10
-16.63025795847827
 20
135.4999997723947
 30
0.0
  0
ENDBLK
  5
12B7
330
12AB
100
AcDbEntity
  8
0
100
AcDbBlockEnd
  0
BLOCK
  5
12DE
330
12DD
100
AcDbEntity
  8
0
100
AcDbBlockBegin
  2
*D22
 70
     1
 10
0.0
 20
0.0
 30
0.0
  3
*D22
  1

  0
LINE
  5
1368
330
12DD
100
AcDbEntity
  8
0
 62
     0
370
    -2
100
AcDbLine
 10
325.3381771429954
 20
135.5691167853564
 30
0.0
 11
325.3381771429954
 21
168.76773376054
 31
0.0
  0
LINE
  5
1369
330
12DD
100
AcDbEntity
  8
0
 62
     0
370
    -2
100
AcDbLine
 10
512.3340208874552
 20
135.5691167853564
 30
0.0
 11
512.3340208874552
 21
168.76773376054
 31
0.0
  0
LINE
  5
136A
330
12DD
100
AcDbEntity
  8
0
 62
     0
370
    -2
100
AcDbLine
 10
330.3381771429954
 20
168.58773376054
 30
0.0
 11
412.8878433961155
 21
168.58773376054
 31
0.0
  0
LINE
  5
136B
330
12DD
100
AcDbEntity
  8
0
 62
     0
370
    -2
100
AcDbLine
 10
507.3340208874553
 20
168.58773376054
 30
0.0
 11
430.5678433961155
 21
168.58773376054
 31
0.0
  0
SOLID
  5
136C
330
12DD
100
AcDbEntity
  8
0
 62
     0
100
AcDbTrace
 10
330.3381771429954
 20
169.4210670938734
 30
0.0
 11
330.3381771429954
 21
167.7544004272067
 31
0.0
 12
325.3381771429954
 22
168.58773376054
 32
0.0
 13
325.3381771429954
 23
168.58773376054
 33
0.0
  0
SOLID
  5
136D
330
12DD
100
AcDbEntity
  8
0
 62
     0
100
AcDbTrace
 10
507.3340208874553
 20
169.4210670938734
 30
0.0
 11
507.3340208874553
 21
167.7544004272067
 31
0.0
 12
512.3340208874552
 22
168.58773376054
 32
0.0
 13
512.3340208874552
 23
168.58773376054
 33
0.0
  0
MTEXT
  5
136E
330
12DD
100
AcDbEntity
  8
0
 62
     0
100
AcDbMText
 10
421.7278433961155
 20
168.58773376054
 30
0.0
 40
5.0
 41
0.0
 71
     5
 72
     1
  1
\A1;187.0
 73
     1
 44
1.0
1001
ACAD
1000
MTEXTBEGIN
1070
    73
1070
     1
1070
    44
1040
1.0
1070
    74
1070
     0
1000
MTEXTEND
  0
POINT
  5
136F
330
12DD
100
AcDbEntity
  8
Defpoints
 62
     0
100
AcDbPoint
 10
325.3381771429954
 20
135.5066167853564
 30
0.0
  0
POINT
  5
1370
330
12DD
100
AcDbEntity
  8
Defpoints
 62
     0
100
AcDbPoint
 10
512.3340208874552
 20
135.5066167853564
 30
0.0
  0
POINT
  5
1371
330
12DD
100
AcDbEntity
  8
Defpoints
 62
     0
100
AcDbPoint
 10
512.3340208874552
 20
168.58773376054
 30
0.0
  0
ENDBLK
  5
12DF
330
12DD
100
AcDbEntity
  8
0
100
AcDbBlockEnd
  0
BLOCK
  5
12EB
330
12EA
100
AcDbEntity
  8
0
100
AcDbBlockBegin
  2
*D23
 70
     1
 10
0.0
 20
0.0
 30
0.0
  3
*D23
  1

  0
LINE
  5
1372
330
12EA
100
AcDbEntity
  8
0
 62
     0
370
    -2
100
AcDbLine
 10
493.1469487372904
 20
16.75618893552157
 30
0.0
 11
531.8182728154093
 21
16.75618893552156
 31
0.0
  0
LINE
  5
1373
330
12EA
100
AcDbEntity
  8
0
 62
     0
370
    -2
100
AcDbLine
 10
493.2094487372904
 20
154.7561889355215
 30
0.0
 11
531.8182728154093
 21
154.7561889355215
 31
0.0
  0
LINE
  5
1374
330
12EA
100
AcDbEntity
  8
0
 62
     0
370
    -2
100
AcDbLine
 10
531.6382728154094
 20
21.75618893552156
 30
0.0
 11
531.6382728154094
 21
88.61698414028019
 31
0.0
  0
LINE
  5
1375
330
12EA
100
AcDbEntity
  8
0
 62
     0
370
    -2
100
AcDbLine
 10
531.6382728154094
 20
149.7561889355215
 30
0.0
 11
531.6382728154094
 21
93.7969841402802
 31
0.0
  0
SOLID
  5
1376
330
12EA
100
AcDbEntity
  8
0
 62
     0
100
AcDbTrace
 10
530.804939482076
 20
21.75618893552156
 30
0.0
 11
532.4716061487428
 21
21.75618893552156
 31
0.0
 12
531.6382728154094
 22
16.75618893552156
 32
0.0
 13
531.6382728154094
 23
16.75618893552156
 33
0.0
  0
SOLID
  5
1377
330
12EA
100
AcDbEntity
  8
0
 62
     0
100
AcDbTrace
 10
530.804939482076
 20
149.7561889355215
 30
0.0
 11
532.4716061487428
 21
149.7561889355215
 31
0.0
 12
531.6382728154094
 22
154.7561889355215
 32
0.0
 13
531.6382728154094
 23
154.7561889355215
 33
0.0
  0
MTEXT
  5
1378
330
12EA
100
AcDbEntity
  8
0
 62
     0
100
AcDbMText
 10
531.6382728154094
 20
91.20698414028028
 30
0.0
 40
5.0
 41
0.0
 71
     5
 72
     1
  1
\A1;138.0
 73
     1
 44
1.0
1001
ACAD
1000
MTEXTBEGIN
1070
    73
1070
     1
1070
    44
1040
1.0
1070
    74
1070
     0
1000
MTEXTEND
  0
POINT
  5
1379
330
12EA
100
AcDbEntity
  8
Defpoints
 62
     0
100
AcDbPoint
 10
493.0844487372905
 20
16.75618893552157
 30
0.0
  0
POINT
  5
137A
330
12EA
100
AcDbEntity
  8
Defpoints
 62
     0
100
AcDbPoint
 10
493.1469487372904
 20
154.7561889355215
 30
0.0
  0
POINT
  5
137B
330
12EA
100
AcDbEntity
  8
Defpoints
 62
     0
100
AcDbPoint
 10
531.6382728154094
 20
154.7561889355215
 30
0.0
  0
ENDBLK
  5
12EC
330
12EA
100
AcDbEntity
  8
0
100
AcDbBlockEnd
  0
BLOCK
  5
12F8
330
12F7
100
AcDbEntity
  8
0
100
AcDbBlockBegin
  2
*D24
 70
     1
 10
0.0
 20
0.0
 30
0.0
  3
*D24
  1

  0
LINE
  5
137C
330
12F7
100
AcDbEntity
  8
0
 62
     0
370
    -2
100
AcDbLine
 10
329.3381771429954
 20
19.19368893552179
 30
0.0
 11
329.3381771429954
 21
2.748793420699009
 31
0.0
  0
LINE
  5
137D
330
12F7
100
AcDbEntity
  8
0
 62
     0
370
    -2
100
AcDbLine
 10
508.3381771429954
 20
19.19368893552179
 30
0.0
 11
508.3381771429954
 21
2.748793420699009
 31
0.0
  0
LINE
  5
137E
330
12F7
100
AcDbEntity
  8
0
 62
     0
370
    -2
100
AcDbLine
 10
334.3381771429954
 20
2.928793420699008
 30
0.0
 11
414.7301788752674
 21
2.928793420699008
 31
0.0
  0
LINE
  5
137F
330
12F7
100
AcDbEntity
  8
0
 62
     0
370
    -2
100
AcDbLine
 10
503.3381771429954
 20
2.928793420699008
 30
0.0
 11
432.4101788752673
 21
2.928793420699008
 31
0.0
  0
SOLID
  5
1380
330
12F7
100
AcDbEntity
  8
0
 62
     0
100
AcDbTrace
 10
334.3381771429954
 20
3.762126754032342
 30
0.0
 11
334.3381771429954
 21
2.095460087365675
 31
0.0
 12
329.3381771429954
 22
2.928793420699008
 32
0.0
 13
329.3381771429954
 23
2.928793420699008
 33
0.0
  0
SOLID
  5
1381
330
12F7
100
AcDbEntity
  8
0
 62
     0
100
AcDbTrace
 10
503.3381771429954
 20
3.762126754032342
 30
0.0
 11
503.3381771429954
 21
2.095460087365675
 31
0.0
 12
508.3381771429954
 22
2.928793420699008
 32
0.0
 13
508.3381771429954
 23
2.928793420699008
 33
0.0
  0
MTEXT
  5
1382
330
12F7
100
AcDbEntity
  8
0
 62
     0
100
AcDbMText
 10
423.5701788752674
 20
2.928793420699008
 30
0.0
 40
5.0
 41
0.0
 71
     5
 72
     1
  1
\A1;179.0
 73
     1
 44
1.0
1001
ACAD
1000
MTEXTBEGIN
1070
    73
1070
     1
1070
    44
1040
1.0
1070
    74
1070
     0
1000
MTEXTEND
  0
POINT
  5
1383
330
12F7
100
AcDbEntity
  8
Defpoints
 62
     0
100
AcDbPoint
 10
329.3381771429954
 20
19.25618893552179
 30
0.0
  0
POINT
  5
1384
330
12F7
100
AcDbEntity
  8
Defpoints
 62
     0
100
AcDbPoint
 10
508.3381771429954
 20
19.25618893552179
 30
0.0
  0
POINT
  5
1385
330
12F7
100
AcDbEntity
  8
Defpoints
 62
     0
100
AcDbPoint
 10
508.3381771429954
 20
2.928793420699008
 30
0.0
  0
ENDBLK
  5
12F9
330
12F7
100
AcDbEntity
  8
0
100
AcDbBlockEnd
  0
BLOCK
  5
1305
330
1304
100
AcDbEntity
  8
0
100
AcDbBlockBegin
  2
*D25
 70
     1
 10
0.0
 20
0.0
 30
0.0
  3
*D25
  1

  0
LINE
  5
1386
330
1304
100
AcDbEntity
  8
0
 62
     0
370
    -2
100
AcDbLine
 10
329.2756771429954
 20
19.25618893552179
 30
0.0
 11
308.5279193951786
 21
19.25618893552179
 31
0.0
  0
LINE
  5
1387
330
1304
100
AcDbEntity
  8
0
 62
     0
370
    -2
100
AcDbLine
 10
329.3381771429954
 20
152.2561889355215
 30
0.0
 11
308.5279193951786
 21
152.2561889355215
 31
0.0
  0
LINE
  5
1388
330
1304
100
AcDbEntity
  8
0
 62
     0
370
    -2
100
AcDbLine
 10
308.7079193951786
 20
24.2561889355218
 30
0.0
 11
308.7079193951786
 21
81.13304630761012
 31
0.0
  0
LINE
  5
1389
330
1304
100
AcDbEntity
  8
0
 62
     0
370
    -2
100
AcDbLine
 10
308.7079193951786
 20
147.2561889355215
 30
0.0
 11
308.7079193951786
 21
86.31304630761013
 31
0.0
  0
SOLID
  5
138A
330
1304
100
AcDbEntity
  8
0
 62
     0
100
AcDbTrace
 10
307.8745860618453
 20
24.2561889355218
 30
0.0
 11
309.5412527285119
 21
24.2561889355218
 31
0.0
 12
308.7079193951786
 22
19.25618893552179
 32
0.0
 13
308.7079193951786
 23
19.25618893552179
 33
0.0
  0
SOLID
  5
138B
330
1304
100
AcDbEntity
  8
0
 62
     0
100
AcDbTrace
 10
307.8745860618453
 20
147.2561889355215
 30
0.0
 11
309.541252728512
 21
147.2561889355215
 31
0.0
 12
308.7079193951786
 22
152.2561889355215
 32
0.0
 13
308.7079193951786
 23
152.2561889355215
 33
0.0
  0
MTEXT
  5
138C
330
1304
100
AcDbEntity
  8
0
 62
     0
100
AcDbMText
 10
308.7079193951786
 20
83.72304630761018
 30
0.0
 40
5.0
 41
0.0
 71
     5
 72
     1
  1
\A1;133.0
 73
     1
 44
1.0
1001
ACAD
1000
MTEXTBEGIN
1070
    73
1070
     1
1070
    44
1040
1.0
1070
    74
1070
     0
1000
MTEXTEND
  0
POINT
  5
138D
330
1304
100
AcDbEntity
  8
Defpoints
 62
     0
100
AcDbPoint
 10
329.3381771429954
 20
19.25618893552179
 30
0.0
  0
POINT
  5
138E
330
1304
100
AcDbEntity
  8
Defpoints
 62
     0
100
AcDbPoint
 10
329.4006771429954
 20
152.2561889355215
 30
0.0
  0
POINT
  5
138F
330
1304
100
AcDbEntity
  8
Defpoints
 62
     0
100
AcDbPoint
 10
308.7079193951786
 20
152.2561889355215
 30
0.0
  0
ENDBLK
  5
1306
330
1304
100
AcDbEntity
  8
0
100
AcDbBlockEnd
  0
ENDSEC
  0
SECTION
  2
ENTITIES
  0
CIRCLE
  5
DA2
330
1F
100
AcDbEntity
  8
0
 62
     7
100
AcDbCircle
 10
151.9877138406985
 20
124.7294201074182
 30
0.0
 40
1.7992031784502
  0
CIRCLE
  5
DA3
330
1F
100
AcDbEntity
  8
0
 62
     7
100
AcDbCircle
 10
151.9877138406985
 20
124.7294201074182
 30
0.0
 40
4.4980079461255
  0
CIRCLE
  5
DA4
330
1F
100
AcDbEntity
  8
0
 62
     7
100
AcDbCircle
 10
167.2809270056734
 20
124.7294201074182
 30
0.0
 40
2.249000510099798
  0
LINE
  5
DA5
330
1F
100
AcDbEntity
  8
0
 62
     7
100
AcDbLine
 10
173.578138130249
 20
102.6708447825837
 30
0.0
 11
173.578138130249
 21
146.787995432254
 31
0.0
  0
LINE
  5
DA6
330
1F
100
AcDbEntity
  8
0
 62
     7
100
AcDbLine
 10
160.9837228070236
 20
102.6708447825837
 30
0.0
 11
160.9837228070236
 21
146.787995432254
 31
0.0
  0
CIRCLE
  5
DA7
330
1F
100
AcDbEntity
  8
0
 62
     7
100
AcDbCircle
 10
167.2809270056734
 20
124.7294201074182
 30
0.0
 40
22.9398301363512
  0
CIRCLE
  5
DA8
330
1F
100
AcDbEntity
  8
0
 62
     7
100
AcDbCircle
 10
167.2809270056734
 20
124.7294201074182
 30
0.0
 40
24.7390333148014
  0
LINE
  5
DA9
330
1F
100
AcDbEntity
  8
0
 62
     7
100
AcDbLine
 10
148.6190612236788
 20
29.35265660926143
 30
0.0
 11
185.942792787668
 21
29.35265660926143
 31
0.0
  0
LINE
  5
DAA
330
1F
100
AcDbEntity
  8
0
 62
     7
100
AcDbLine
 10
191.9949230983463
 20
18.31968435426503
 30
0.0
 11
197.5427074849865
 21
18.31968435426503
 31
0.0
  0
LINE
  5
DAB
330
1F
100
AcDbEntity
  8
0
 62
     7
100
AcDbLine
 10
197.5427074849865
 20
16.74405698979274
 30
0.0
 11
137.0191465263602
 21
16.74405698979274
 31
0.0
  0
ARC
  5
DAC
330
1F
100
AcDbEntity
  8
0
 62
     7
100
AcDbCircle
 10
185.942792787668
 20
23.30052629858307
 30
0.0
 40
6.052130310678297
100
AcDbArc
 50
0.0
 51
90.0
  0
ARC
  5
DAD
330
1F
100
AcDbEntity
  8
0
 62
     7
100
AcDbCircle
 10
148.6190612236788
 20
23.30052629858307
 30
0.0
 40
6.052130310678297
100
AcDbArc
 50
90.0
 51
180.0
  0
LINE
  5
DAE
330
1F
100
AcDbEntity
  8
0
 62
     7
100
AcDbLine
 10
137.0191465263602
 20
16.74405698979274
 30
0.0
 11
137.0191465263602
 21
18.31968435426503
 31
0.0
  0
LINE
  5
DAF
330
1F
100
AcDbEntity
  8
0
 62
     7
100
AcDbLine
 10
197.5427074849865
 20
16.74405698979274
 30
0.0
 11
197.5427074849865
 21
18.31968435426503
 31
0.0
  0
LINE
  5
DB0
330
1F
100
AcDbEntity
  8
0
 62
     7
100
AcDbLine
 10
191.9949230983463
 20
18.31968435426503
 30
0.0
 11
191.9949230983463
 21
23.30052629858307
 31
0.0
  0
LINE
  5
DB1
330
1F
100
AcDbEntity
  8
0
 62
     7
100
AcDbLine
 10
142.5669378389263
 20
18.31968435426503
 30
0.0
 11
142.5669378389263
 21
23.30052629858307
 31
0.0
  0
LINE
  5
DB2
330
1F
100
AcDbEntity
  8
0
 62
     7
100
AcDbLine
 10
137.0191465263602
 20
18.31968435426503
 30
0.0
 11
142.5669378389263
 21
18.31968435426503
 31
0.0
  0
ARC
  5
DB3
330
1F
100
AcDbEntity
  8
0
 62
     7
100
AcDbCircle
 10
124.8793212755071
 20
78.27403809279916
 30
0.0
 40
2.0173767702261
100
AcDbArc
 50
90.0
 51
180.0
  0
ARC
  5
DB4
330
1F
100
AcDbEntity
  8
0
 62
     7
100
AcDbCircle
 10
124.8793212755071
 20
16.72363243431363
 30
0.0
 40
2.0173767702261
100
AcDbArc
 50
180.0
 51
270.0
  0
ARC
  5
DB5
330
1F
100
AcDbEntity
  8
0
 62
     7
100
AcDbCircle
 10
208.0525991863855
 20
16.72363243431363
 30
0.0
 40
2.0173767702261
100
AcDbArc
 50
270.0
 51
0.0
  0
ARC
  5
DB6
330
1F
100
AcDbEntity
  8
0
 62
     7
100
AcDbCircle
 10
208.0525991863855
 20
78.27403809279916
 30
0.0
 40
2.0173767702261
100
AcDbArc
 50
0.0
 51
90.0
  0
LINE
  5
DB7
330
1F
100
AcDbEntity
  8
0
 62
     7
100
AcDbLine
 10
210.0699759566116
 20
16.72363243431363
 30
0.0
 11
210.0699759566116
 21
78.27403809279916
 31
0.0
  0
LINE
  5
DB8
330
1F
100
AcDbEntity
  8
0
 62
     7
100
AcDbLine
 10
122.861944505281
 20
16.72363243431363
 30
0.0
 11
122.861944505281
 21
78.27403809279916
 31
0.0
  0
LINE
  5
DB9
330
1F
100
AcDbEntity
  8
0
 62
     7
100
AcDbLine
 10
124.8793212755071
 20
14.70625566408751
 30
0.0
 11
208.0525991863855
 21
14.70625566408751
 31
0.0
  0
LINE
  5
DBA
330
1F
100
AcDbEntity
  8
0
 62
     7
100
AcDbLine
 10
208.5300101845982
 20
80.29141486302529
 30
0.0
 11
124.8793212755071
 21
80.29141486302529
 31
0.0
  0
LINE
  5
DBB
330
1F
100
AcDbEntity
  8
0
 62
     7
100
AcDbLine
 10
18.02988794178822
 20
155.2563111783316
 30
0.0
 11
18.02988794178822
 21
16.2560666927116
 31
0.0
  0
LINE
  5
DBC
330
1F
100
AcDbEntity
  8
0
 62
     7
100
AcDbLine
 10
214.0298879417882
 20
155.2563111783316
 30
0.0
 11
214.0298879417882
 21
16.2560666927116
 31
0.0
  0
LINE
  5
DBD
330
1F
100
AcDbEntity
  8
0
 62
     7
100
AcDbLine
 10
23.52976569897823
 20
160.7561889355215
 30
0.0
 11
208.5300101845982
 21
160.7561889355215
 31
0.0
  0
LINE
  5
DBE
330
1F
100
AcDbEntity
  8
0
 62
     7
100
AcDbLine
 10
23.52976569897823
 20
10.7561889355216
 30
0.0
 11
208.5300101845982
 21
10.7561889355216
 31
0.0
  0
LINE
  5
DBF
330
1F
100
AcDbEntity
  8
0
 62
     7
100
AcDbLine
 10
23.52976569897823
 20
158.0062500569271
 30
0.0
 11
208.5300101845982
 21
158.0062500569265
 31
0.0
  0
LINE
  5
DC0
330
1F
100
AcDbEntity
  8
0
 62
     7
100
AcDbLine
 10
211.2799490631934
 20
155.2563111783316
 30
0.0
 11
211.2799490631934
 21
16.2560666927116
 31
0.0
  0
LINE
  5
DC1
330
1F
100
AcDbEntity
  8
0
 62
     7
100
AcDbLine
 10
20.77982682038322
 20
155.2563111783316
 30
0.0
 11
20.77982682038322
 21
16.2560666927116
 31
0.0
  0
LINE
  5
DC2
330
1F
100
AcDbEntity
  8
0
 62
     7
100
AcDbLine
 10
23.52976569897823
 20
13.50612781411664
 30
0.0
 11
208.5300101845982
 21
13.5061278141166
 31
0.0
  0
ARC
  5
DC3
330
1F
100
AcDbEntity
  8
0
 62
     7
100
AcDbCircle
 10
23.52976569897823
 20
155.2563111783316
 30
0.0
 40
2.749938878595
100
AcDbArc
 50
90.0
 51
180.0
  0
ARC
  5
DC4
330
1F
100
AcDbEntity
  8
0
 62
     7
100
AcDbCircle
 10
23.52976569897823
 20
155.2563111783316
 30
0.0
 40
5.499877757190001
100
AcDbArc
 50
90.0
 51
180.0
  0
ARC
  5
DC5
330
1F
100
AcDbEntity
  8
0
 62
     7
100
AcDbCircle
 10
208.5300101845982
 20
155.2563111783316
 30
0.0
 40
5.499877757190001
100
AcDbArc
 50
0.0
 51
90.0
  0
ARC
  5
DC6
330
1F
100
AcDbEntity
  8
0
 62
     7
100
AcDbCircle
 10
208.5300101845982
 20
16.2560666927116
 30
0.0
 40
5.499877757190001
100
AcDbArc
 50
270.0
 51
0.0
  0
ARC
  5
DC7
330
1F
100
AcDbEntity
  8
0
 62
     7
100
AcDbCircle
 10
23.52976569897823
 20
16.2560666927116
 30
0.0
 40
5.499877757190001
100
AcDbArc
 50
180.0
 51
270.0
  0
ARC
  5
DC8
330
1F
100
AcDbEntity
  8
0
 62
     7
100
AcDbCircle
 10
208.5300101845982
 20
155.2563111783316
 30
0.0
 40
2.749938878595
100
AcDbArc
 50
0.0
 51
90.0
  0
ARC
  5
DC9
330
1F
100
AcDbEntity
  8
0
 62
     7
100
AcDbCircle
 10
23.52976569897823
 20
16.2560666927116
 30
0.0
 40
2.749938878595
100
AcDbArc
 50
180.0
 51
270.0
  0
ARC
  5
DCA
330
1F
100
AcDbEntity
  8
0
 62
     7
100
AcDbCircle
 10
208.5300101845982
 20
16.2560666927116
 30
0.0
 40
2.749938878595
100
AcDbArc
 50
270.0
 51
0.0
  0
LINE
  5
DCB
330
1F
100
AcDbEntity
  8
0
 62
     7
100
AcDbLine
 10
24.06725032137706
 20
152.9387250811149
 30
0.0
 11
24.06725032137706
 21
151.5736527899283
 31
0.0
  0
LINE
  5
DCC
330
1F
100
AcDbEntity
  8
0
 62
     7
100
AcDbLine
 10
28.99252556219943
 20
152.9387250811149
 30
0.0
 11
28.99252556219943
 21
151.5736527899283
 31
0.0
  0
LINE
  5
DCD
330
1F
100
AcDbEntity
  8
0
 62
     7
100
AcDbLine
 10
27.21242408738124
 20
152.9387250811149
 30
0.0
 11
28.99252556219943
 21
152.9387250811149
 31
0.0
  0
LINE
  5
DCE
330
1F
100
AcDbEntity
  8
0
 62
     7
100
AcDbLine
 10
25.84735179619503
 20
151.5736527899283
 30
0.0
 11
25.84735179619503
 21
148.2182563950819
 31
0.0
  0
LINE
  5
DCF
330
1F
100
AcDbEntity
  8
0
 62
     7
100
AcDbLine
 10
25.84735179619503
 20
151.5736527899283
 30
0.0
 11
24.06725032137706
 21
151.5736527899283
 31
0.0
  0
LINE
  5
DD0
330
1F
100
AcDbEntity
  8
0
 62
     7
100
AcDbLine
 10
27.20659938369954
 20
151.5794774936102
 30
0.0
 11
27.17748279121588
 21
148.2125078765844
 31
0.0
  0
LINE
  5
DD1
330
1F
100
AcDbEntity
  8
0
 62
     7
100
AcDbLine
 10
27.24730997613972
 20
156.2880682167252
 30
0.0
 11
27.21835267995181
 21
152.9387250811149
 31
0.0
  0
LINE
  5
DD2
330
1F
100
AcDbEntity
  8
0
 62
     7
100
AcDbLine
 10
28.99252556219943
 20
151.5736527899283
 30
0.0
 11
27.20654397629221
 21
151.5736527899283
 31
0.0
  0
LINE
  5
DD3
330
1F
100
AcDbEntity
  8
0
 62
     7
100
AcDbLine
 10
25.84735179619503
 20
156.2941214759616
 30
0.0
 11
25.84735179619503
 21
152.9387250811149
 31
0.0
  0
LINE
  5
DD4
330
1F
100
AcDbEntity
  8
0
 62
     7
100
AcDbLine
 10
24.06725032137706
 20
152.9387250811149
 30
0.0
 11
25.84735179619503
 21
152.9387250811149
 31
0.0
  0
LINE
  5
DD8
330
1F
100
AcDbEntity
  8
0
 62
     7
100
AcDbLine
 10
89.52829878525824
 20
27.0106236524539
 30
0.0
 11
45.52927672773819
 21
27.0106236524539
 31
0.0
  0
CIRCLE
  5
DD9
330
1F
100
AcDbEntity
  8
0
 62
     7
100
AcDbCircle
 10
26.52988794178822
 20
152.2561889355215
 30
0.0
 40
4.095209947633298
  0
CIRCLE
  5
DDA
330
1F
100
AcDbEntity
  8
0
 62
     7
100
AcDbCircle
 10
205.5298879417882
 20
152.2561889355215
 30
0.0
 40
4.095209947633298
  0
LINE
  5
DDB
330
1F
100
AcDbEntity
  8
0
 62
     7
100
AcDbLine
 10
206.2124240873815
 20
156.2941214759616
 30
0.0
 11
206.2124240873815
 21
152.9387250811149
 31
0.0
  0
LINE
  5
DDC
330
1F
100
AcDbEntity
  8
0
 62
     7
100
AcDbLine
 10
204.8124659074366
 20
156.2880682167252
 30
0.0
 11
204.8414232036245
 21
152.9387250811149
 31
0.0
  0
LINE
  5
DDD
330
1F
100
AcDbEntity
  8
0
 62
     7
100
AcDbLine
 10
207.9925255621994
 20
152.9387250811149
 30
0.0
 11
207.9925255621994
 21
151.5736527899283
 31
0.0
  0
LINE
  5
DDE
330
1F
100
AcDbEntity
  8
0
 62
     7
100
AcDbLine
 10
206.2124240873815
 20
151.5736527899283
 30
0.0
 11
207.9925255621994
 21
151.5736527899283
 31
0.0
  0
LINE
  5
DDF
330
1F
100
AcDbEntity
  8
0
 62
     7
100
AcDbLine
 10
207.9925255621994
 20
152.9387250811149
 30
0.0
 11
206.2124240873815
 21
152.9387250811149
 31
0.0
  0
LINE
  5
DE0
330
1F
100
AcDbEntity
  8
0
 62
     7
100
AcDbLine
 10
206.2124240873815
 20
151.5736527899283
 30
0.0
 11
206.2124240873815
 21
148.2182563950819
 31
0.0
  0
LINE
  5
DE1
330
1F
100
AcDbEntity
  8
0
 62
     7
100
AcDbLine
 10
203.0672503213771
 20
152.9387250811149
 30
0.0
 11
203.0672503213771
 21
151.5736527899283
 31
0.0
  0
LINE
  5
DE2
330
1F
100
AcDbEntity
  8
0
 62
     7
100
AcDbLine
 10
204.853176499877
 20
151.5794774936102
 30
0.0
 11
204.8822930923606
 21
148.2125078765844
 31
0.0
  0
LINE
  5
DE3
330
1F
100
AcDbEntity
  8
0
 62
     7
100
AcDbLine
 10
204.8473517961951
 20
152.9387250811149
 30
0.0
 11
203.0672503213771
 21
152.9387250811149
 31
0.0
  0
LINE
  5
DE4
330
1F
100
AcDbEntity
  8
0
 62
     7
100
AcDbLine
 10
203.0672503213771
 20
151.5736527899283
 30
0.0
 11
204.8532319072841
 21
151.5736527899283
 31
0.0
  0
CIRCLE
  5
DE5
330
1F
100
AcDbEntity
  8
0
 62
     7
100
AcDbCircle
 10
26.52988794178822
 20
19.25618893552158
 30
0.0
 40
4.095209947633298
  0
LINE
  5
DE6
330
1F
100
AcDbEntity
  8
0
 62
     7
100
AcDbLine
 10
27.24730997613972
 20
15.22430965431787
 30
0.0
 11
27.21835267995181
 21
18.57365278992832
 31
0.0
  0
LINE
  5
DE7
330
1F
100
AcDbEntity
  8
0
 62
     7
100
AcDbLine
 10
25.84735179619503
 20
15.2182563950813
 30
0.0
 11
25.84735179619503
 21
18.57365278992832
 31
0.0
  0
LINE
  5
DE8
330
1F
100
AcDbEntity
  8
0
 62
     7
100
AcDbLine
 10
28.99252556219943
 20
19.93872508111474
 30
0.0
 11
27.20654397629221
 21
19.93872508111474
 31
0.0
  0
LINE
  5
DE9
330
1F
100
AcDbEntity
  8
0
 62
     7
100
AcDbLine
 10
27.21242408738124
 20
18.57365278992832
 30
0.0
 11
28.99252556219943
 21
18.57365278992832
 31
0.0
  0
LINE
  5
DEA
330
1F
100
AcDbEntity
  8
0
 62
     7
100
AcDbLine
 10
28.99252556219943
 20
18.57365278992832
 30
0.0
 11
28.99252556219943
 21
19.93872508111474
 31
0.0
  0
LINE
  5
DEB
330
1F
100
AcDbEntity
  8
0
 62
     7
100
AcDbLine
 10
24.06725032137706
 20
18.57365278992832
 30
0.0
 11
25.84735179619503
 21
18.57365278992832
 31
0.0
  0
LINE
  5
DEC
330
1F
100
AcDbEntity
  8
0
 62
     7
100
AcDbLine
 10
25.84735179619503
 20
19.93872508111474
 30
0.0
 11
24.06725032137706
 21
19.93872508111474
 31
0.0
  0
LINE
  5
DED
330
1F
100
AcDbEntity
  8
0
 62
     7
100
AcDbLine
 10
24.06725032137706
 20
18.57365278992832
 30
0.0
 11
24.06725032137706
 21
19.93872508111474
 31
0.0
  0
LINE
  5
DEE
330
1F
100
AcDbEntity
  8
0
 62
     7
100
AcDbLine
 10
27.20659938369954
 20
19.93290037743288
 30
0.0
 11
27.17748279121588
 21
23.29986999445881
 31
0.0
  0
LINE
  5
DEF
330
1F
100
AcDbEntity
  8
0
 62
     7
100
AcDbLine
 10
25.84735179619503
 20
19.93872508111474
 30
0.0
 11
25.84735179619503
 21
23.29412147596116
 31
0.0
  0
CIRCLE
  5
DF0
330
1F
100
AcDbEntity
  8
0
 62
     7
100
AcDbCircle
 10
205.5298879417882
 20
19.25618893552158
 30
0.0
 40
4.095209947633298
  0
LINE
  5
DF1
330
1F
100
AcDbEntity
  8
0
 62
     7
100
AcDbLine
 10
204.8124659074366
 20
15.22430965431787
 30
0.0
 11
204.8414232036245
 21
18.57365278992832
 31
0.0
  0
LINE
  5
DF2
330
1F
100
AcDbEntity
  8
0
 62
     7
100
AcDbLine
 10
203.0672503213771
 20
18.57365278992832
 30
0.0
 11
203.0672503213771
 21
19.93872508111474
 31
0.0
  0
LINE
  5
DF3
330
1F
100
AcDbEntity
  8
0
 62
     7
100
AcDbLine
 10
204.853176499877
 20
19.93290037743288
 30
0.0
 11
204.8822930923606
 21
23.29986999445881
 31
0.0
  0
LINE
  5
DF4
330
1F
100
AcDbEntity
  8
0
 62
     7
100
AcDbLine
 10
204.8473517961951
 20
18.57365278992832
 30
0.0
 11
203.0672503213771
 21
18.57365278992832
 31
0.0
  0
LINE
  5
DF5
330
1F
100
AcDbEntity
  8
0
 62
     7
100
AcDbLine
 10
203.0672503213771
 20
19.93872508111474
 30
0.0
 11
204.8532319072841
 21
19.93872508111474
 31
0.0
  0
LINE
  5
DF6
330
1F
100
AcDbEntity
  8
0
 62
     7
100
AcDbLine
 10
206.2124240873815
 20
15.2182563950813
 30
0.0
 11
206.2124240873815
 21
18.57365278992832
 31
0.0
  0
LINE
  5
DF7
330
1F
100
AcDbEntity
  8
0
 62
     7
100
AcDbLine
 10
207.9925255621994
 20
18.57365278992832
 30
0.0
 11
207.9925255621994
 21
19.93872508111474
 31
0.0
  0
LINE
  5
DF8
330
1F
100
AcDbEntity
  8
0
 62
     7
100
AcDbLine
 10
206.2124240873815
 20
19.93872508111474
 30
0.0
 11
207.9925255621994
 21
19.93872508111474
 31
0.0
  0
LINE
  5
DF9
330
1F
100
AcDbEntity
  8
0
 62
     7
100
AcDbLine
 10
207.9925255621994
 20
18.57365278992832
 30
0.0
 11
206.2124240873815
 21
18.57365278992832
 31
0.0
  0
LINE
  5
DFA
330
1F
100
AcDbEntity
  8
0
 62
     7
100
AcDbLine
 10
206.2124240873815
 20
19.93872508111474
 30
0.0
 11
206.2124240873815
 21
23.29412147596116
 31
0.0
  0
CIRCLE
  5
E1A
330
1F
100
AcDbEntity
  8
0
 62
     7
100
AcDbCircle
 10
139.7930421826433
 20
51.16350126534404
 30
0.0
 40
9.851341735613726
  0
CIRCLE
  5
E1B
330
1F
100
AcDbEntity
  8
0
 62
     7
100
AcDbCircle
 10
194.7688152916664
 20
51.16350126534413
 30
0.0
 40
9.851341735613726
  0
LINE
  5
E3A
330
1F
100
AcDbEntity
  8
0
 62
     7
100
AcDbLine
 10
45.52927669018958
 20
47.6460090601872
 30
0.0
 11
45.52927669018958
 21
27.01062359427108
 31
0.0
  0
LINE
  5
E3B
330
1F
100
AcDbEntity
  8
0
 62
     7
100
AcDbLine
 10
89.52829874770978
 20
47.6460090601872
 30
0.0
 11
89.52829874770969
 21
27.01062359427108
 31
0.0
  0
LINE
  5
E3C
330
1F
100
AcDbEntity
  8
0
 62
     7
100
AcDbLine
 10
89.52829874770978
 20
47.6460090601872
 30
0.0
 11
45.52927669018967
 21
47.6460090601872
 31
0.0
  0
LINE
  5
EA6
330
1F
100
AcDbEntity
  8
0
 62
     7
100
AcDbLine
 10
-113.7840604235475
 20
160.7561889355205
 30
0.0
 11
-113.7840604235475
 21
160.7561889355205
 31
0.0
  0
LINE
  5
EA7
330
1F
100
AcDbEntity
  8
0
 62
     7
100
AcDbLine
 10
-113.7840604235475
 20
10.75618893552052
 30
0.0
 11
-113.7840604235475
 21
10.75618893552052
 31
0.0
  0
LINE
  5
EA8
330
1F
100
AcDbEntity
  8
0
 62
     7
100
AcDbLine
 10
-113.7840604235475
 20
160.7561889355205
 30
0.0
 11
-113.7840604235475
 21
10.75618893552052
 31
0.0
  0
LINE
  5
EA9
330
1F
100
AcDbEntity
  8
0
 62
     7
100
AcDbLine
 10
-116.5339993021425
 20
158.0062500569265
 30
0.0
 11
-116.5339993021425
 21
14.8810972534136
 31
0.0
  0
LINE
  5
EAA
330
1F
100
AcDbEntity
  8
0
 62
     7
100
AcDbLine
 10
-116.5339993021425
 20
156.6312806176285
 30
0.0
 11
-131.5973622610607
 21
156.6312802932263
 31
0.0
  0
ARC
  5
EAB
330
1F
100
AcDbEntity
  8
0
 62
     7
100
AcDbCircle
 10
-113.7840604235475
 20
158.0062500569265
 30
0.0
 40
2.749938878595
100
AcDbArc
 50
89.99999999999348
 51
180.0
  0
ARC
  5
EAC
330
1F
100
AcDbEntity
  8
0
 62
     7
100
AcDbCircle
 10
-113.6529271339177
 20
13.82271158041857
 30
0.0
 40
3.06932518174925
100
AcDbArc
 50
159.828774805459
 51
267.5513602465038
  0
LINE
  5
EAD
330
1F
100
AcDbEntity
  8
0
 62
     7
100
AcDbLine
 10
-133.2473257255005
 20
154.9813169660693
 30
0.0
 11
-133.2473257255005
 21
87.8828083283513
 31
0.0
  0
ARC
  5
EAE
330
1F
100
AcDbEntity
  8
0
 62
     7
100
AcDbCircle
 10
-131.5973623983435
 20
154.9813169660693
 30
0.0
 40
1.649963327156999
100
AcDbArc
 50
89.99999999999348
 51
180.0
  0
ARC
  5
EAF
330
1F
100
AcDbEntity
  8
0
 62
     7
100
AcDbCircle
 10
-131.5973623983435
 20
16.53106025616831
 30
0.0
 40
1.649963327156999
100
AcDbArc
 50
180.0
 51
269.9999999999821
  0
LINE
  5
EB0
330
1F
100
AcDbEntity
  8
0
 62
     7
100
AcDbLine
 10
-133.2473257255005
 20
16.53106025616831
 30
0.0
 11
-133.2473257255005
 21
87.8828083283513
 31
0.0
  0
LINE
  5
EB1
330
1F
100
AcDbEntity
  8
0
 62
     7
100
AcDbLine
 10
-116.5339994213143
 20
14.88109692901135
 30
0.0
 11
-131.5973623983435
 21
14.88109692901135
 31
0.0
  0
LINE
  5
EB2
330
1F
100
AcDbEntity
  8
0
 62
     7
100
AcDbLine
 10
-84.78381593792756
 20
99.97997020006209
 30
0.0
 11
-113.7840604235476
 21
99.97997020006209
 31
0.0
  0
LINE
  5
EB3
330
1F
100
AcDbEntity
  8
0
 62
     7
100
AcDbLine
 10
-73.78406042354756
 20
107.701484134121
 30
0.0
 11
-84.78381593792756
 21
107.701484134121
 31
0.0
  0
LINE
  5
EB4
330
1F
100
AcDbEntity
  8
0
 62
     7
100
AcDbLine
 10
-73.78406042354756
 20
116.4796034716321
 30
0.0
 11
-113.7840604235476
 21
116.4796034716321
 31
0.0
  0
LINE
  5
EB5
330
1F
100
AcDbEntity
  8
0
 62
     7
100
AcDbLine
 10
-73.78406042354756
 20
124.7294201074182
 30
0.0
 11
-113.7840604235476
 21
124.7294201074182
 31
0.0
  0
LINE
  5
EB6
330
1F
100
AcDbEntity
  8
0
 62
     7
100
AcDbLine
 10
-73.78406042354756
 20
132.979236743203
 30
0.0
 11
-113.7840604235476
 21
132.979236743203
 31
0.0
  0
LINE
  5
EB7
330
1F
100
AcDbEntity
  8
0
 62
     7
100
AcDbLine
 10
-73.78406042354756
 20
141.2290533789871
 30
0.0
 11
-84.78381593792756
 21
141.2290533789871
 31
0.0
  0
LINE
  5
EB8
330
1F
100
AcDbEntity
  8
0
 62
     7
100
AcDbLine
 10
-73.78406042354756
 20
141.2290533789871
 30
0.0
 11
-73.78406042354756
 21
107.701484134121
 31
0.0
  0
LINE
  5
EB9
330
1F
100
AcDbEntity
  8
0
 62
     7
100
AcDbLine
 10
-84.78381593792756
 20
108.2297868358481
 30
0.0
 11
-84.78381593792756
 21
99.97997020006209
 31
0.0
  0
LINE
  5
EBA
330
1F
100
AcDbEntity
  8
0
 62
     7
100
AcDbLine
 10
-84.78381593792756
 20
108.2297868358481
 30
0.0
 11
-113.7840604235476
 21
108.2297868358481
 31
0.0
  0
LINE
  5
EBB
330
1F
100
AcDbEntity
  8
0
 62
     7
100
AcDbLine
 10
-84.78381593792756
 20
140.7007506772611
 30
0.0
 11
-113.7840604235476
 21
140.7007506772611
 31
0.0
  0
LINE
  5
EBC
330
1F
100
AcDbEntity
  8
0
 62
     7
100
AcDbLine
 10
-84.78381593792756
 20
140.7007506772611
 30
0.0
 11
-84.78381593792756
 21
148.9505673130461
 31
0.0
  0
LINE
  5
EBD
330
1F
100
AcDbEntity
  8
0
 62
     7
100
AcDbLine
 10
-84.78381593792756
 20
148.9505673130461
 30
0.0
 11
-113.7840604235476
 21
148.9505673130461
 31
0.0
  0
LINE
  5
EBF
330
1F
100
AcDbEntity
  8
0
 62
     7
100
AcDbLine
 10
-101.7690120224946
 20
131.6474019704101
 30
0.0
 11
-84.72434993815005
 21
131.6474019704101
 31
0.0
  0
LINE
  5
EC0
330
1F
100
AcDbEntity
  8
0
 62
     7
100
AcDbLine
 10
-84.72434993815005
 20
126.0493907691431
 30
0.0
 11
-101.7690120224946
 21
126.0493907691431
 31
0.0
  0
LINE
  5
EC1
330
1F
100
AcDbEntity
  8
0
 62
     7
100
AcDbLine
 10
-101.7690120224946
 20
131.6474019704101
 30
0.0
 11
-101.7690120224946
 21
126.0493907691431
 31
0.0
  0
LINE
  5
EC2
330
1F
100
AcDbEntity
  8
0
 62
     7
100
AcDbLine
 10
-84.72434993815005
 20
131.6474019704101
 30
0.0
 11
-84.72434993815005
 21
126.0493907691431
 31
0.0
  0
LINE
  5
EC3
330
1F
100
AcDbEntity
  8
0
 62
     7
100
AcDbLine
 10
-100.0513339178133
 20
147.6187325402541
 30
0.0
 11
-100.0513339178133
 21
142.0207213389871
 31
0.0
  0
LINE
  5
EC4
330
1F
100
AcDbEntity
  8
0
 62
     7
100
AcDbLine
 10
-100.0513339178133
 20
142.0207213389871
 30
0.0
 11
-113.7840604235476
 21
142.0207213389871
 31
0.0
  0
LINE
  5
EC5
330
1F
100
AcDbEntity
  8
0
 62
     7
100
AcDbLine
 10
-113.7840604235476
 20
147.6187325402541
 30
0.0
 11
-100.0513339178133
 21
147.6187325402541
 31
0.0
  0
LINE
  5
EDE
330
1F
100
AcDbEntity
  8
0
 62
     7
100
AcDbLine
 10
-84.78381593792756
 20
63.7168856920735
 30
0.0
 11
-113.7840604235475
 21
63.7168856920735
 31
0.0
  0
LINE
  5
EDF
330
1F
100
AcDbEntity
  8
0
 62
     7
100
AcDbLine
 10
-76.35640083163365
 20
55.4670690562885
 30
0.0
 11
-113.7840604235475
 21
55.4670690562885
 31
0.0
  0
LINE
  5
EE0
330
1F
100
AcDbEntity
  8
0
 62
     7
100
AcDbLine
 10
-76.35640083163365
 20
47.74555512223055
 30
0.0
 11
-113.7840604235475
 21
47.74555512223055
 31
0.0
  0
LINE
  5
EE1
330
1F
100
AcDbEntity
  8
0
 62
     7
100
AcDbLine
 10
-76.35640083163365
 20
39.49573848644554
 30
0.0
 11
-113.7840604235475
 21
39.49573848644554
 31
0.0
  0
LINE
  5
EE2
330
1F
100
AcDbEntity
  8
0
 62
     7
100
AcDbLine
 10
-76.35640083163365
 20
31.24592185066053
 30
0.0
 11
-113.7840604235475
 21
31.24592185066053
 31
0.0
  0
LINE
  5
EE3
330
1F
100
AcDbEntity
  8
0
 62
     7
100
AcDbLine
 10
-84.78381593792756
 20
55.4670690562885
 30
0.0
 11
-84.78381593792756
 21
63.7168856920735
 31
0.0
  0
LINE
  5
EE4
330
1F
100
AcDbEntity
  8
0
 62
     7
100
AcDbLine
 10
-76.35640083163365
 20
55.4670690562885
 30
0.0
 11
-76.35640083163365
 21
31.24592185066053
 31
0.0
  0
LINE
  5
EE8
330
1F
100
AcDbEntity
  8
0
 62
     7
100
AcDbLine
 10
-100.0513339178133
 20
106.8979520630551
 30
0.0
 11
-100.0513339178133
 21
101.2999408617881
 31
0.0
  0
LINE
  5
EE9
330
1F
100
AcDbEntity
  8
0
 62
     7
100
AcDbLine
 10
-100.0513339178133
 20
101.2999408617881
 30
0.0
 11
-113.7840604235476
 21
101.2999408617881
 31
0.0
  0
LINE
  5
EEA
330
1F
100
AcDbEntity
  8
0
 62
     7
100
AcDbLine
 10
-113.7840604235476
 20
106.8979520630551
 30
0.0
 11
-100.0513339178133
 21
106.8979520630551
 31
0.0
  0
DIMENSION
  5
F2B
330
1F
100
AcDbEntity
  8
0
 62
     1
100
AcDbDimension
  2
*D6
 10
214.0298879417882
 20
-13.21285912244497
 30
0.0
 11
121.7755786392675
 21
-13.21285912244497
 31
0.0
 70
   160
 71
     0
 42
196.0
  3
Standard
100
AcDbAlignedDimension
 13
18.02988794178822
 23
16.3185666927116
 33
0.0
 14
214.0298879417882
 24
16.2560666927116
 34
0.0
100
AcDbRotatedDimension
1001
ACAD
1000
DSTYLE
1002
{
1070
    41
1040
6.0
1070
   140
1040
7.0
1070
   271
1070
     1
1002
}
  0
DIMENSION
  5
F2C
330
1F
100
AcDbEntity
  8
0
 62
     1
100
AcDbDimension
  2
*D7
 10
262.5756963404687
 20
160.7561889355215
 30
0.0
 11
262.5756963404686
 21
101.8898145423452
 31
0.0
 70
   160
 71
     0
 42
149.9999999999999
  3
Standard
100
AcDbAlignedDimension
 13
208.4702903845982
 23
10.7561889355216
 33
0.0
 14
208.4675101845982
 24
160.7561889355215
 34
0.0
 50
90.0
100
AcDbRotatedDimension
1001
ACAD
1000
DSTYLE
1002
{
1070
    41
1040
6.0
1070
   140
1040
7.0
1070
   271
1070
     1
1002
}
  0
DIMENSION
  5
F2D
330
1F
100
AcDbEntity
  8
0
 62
     1
100
AcDbDimension
  2
*D8
 10
-113.7840604235475
 20
-13.50055135813827
 30
0.0
 11
-141.2694808123474
 21
-13.50055135813827
 31
0.0
 70
   160
 71
     0
 42
54.00003480293474
  3
Standard
100
AcDbAlignedDimension
 13
-167.7840952264823
 23
99.48032410697962
 33
0.0
 14
-113.7840604235475
 24
10.81868893552052
 34
0.0
100
AcDbRotatedDimension
1001
ACAD
1000
DSTYLE
1002
{
1070
    41
1040
6.0
1070
   140
1040
7.0
1070
   271
1070
     1
1002
}
  0
DIMENSION
  5
F2E
330
1F
100
AcDbEntity
  8
0
 62
     1
100
AcDbDimension
  2
*D9
 10
-73.78406042354758
 20
-13.50055135813827
 30
0.0
 11
-95.41892867102966
 21
-13.50055135813827
 31
0.0
 70
   160
 71
     0
 42
40.0
  3
Standard
100
AcDbAlignedDimension
 13
-113.7840604235475
 23
10.81868893552052
 33
0.0
 14
-73.78406042354756
 24
107.701484134121
 34
0.0
100
AcDbRotatedDimension
1001
ACAD
1000
DSTYLE
1002
{
1070
    41
1040
6.0
1070
   140
1040
7.0
1070
   271
1070
     1
1002
}
  0
POINT
  5
1065
330
1F
100
AcDbEntity
  8
0
 62
     7
370
     5
100
AcDbPoint
 10
67.52878775649818
 20
114.220869237387
 30
0.0
  0
LINE
  5
1066
330
1F
100
AcDbEntity
  8
0
 62
     7
370
    70
100
AcDbLine
 10
84.02878775649821
 20
114.8500937373871
 30
0.0
 11
84.02878775649821
 21
126.9268782373869
 31
0.0
  0
LINE
  5
1067
330
1F
100
AcDbEntity
  8
0
 62
     7
370
    70
100
AcDbLine
 10
67.52519109113926
 20
58.7337765623161
 30
0.0
 11
97.10549959113935
 21
59.03073656231612
 31
0.0
  0
LINE
  5
1068
330
1F
100
AcDbEntity
  8
0
 62
     7
370
    70
100
AcDbLine
 10
105.0287877564983
 20
135.986995737387
 30
0.0
 11
105.0287877564983
 21
66.67206823738704
 31
0.0
  0
ARC
  5
1069
330
1F
100
AcDbEntity
  8
0
 62
     7
370
    70
100
AcDbCircle
 10
97.02519109113929
 20
67.03033356231611
 30
0.0
 40
8.0
100
AcDbArc
 50
270.5751790000002
 51
0.0
  0
LINE
  5
106A
330
1F
100
AcDbEntity
  8
0
 62
     7
370
    70
100
AcDbLine
 10
30.02878775649821
 20
135.986995737387
 30
0.0
 11
30.02878775649821
 21
66.67206773738704
 31
0.0
  0
LINE
  5
106B
330
1F
100
AcDbEntity
  8
0
 62
     7
370
    70
100
AcDbLine
 10
67.52519109113926
 20
58.7337765623161
 30
0.0
 11
37.94488209113933
 21
59.03073656231612
 31
0.0
  0
ARC
  5
106C
330
1F
100
AcDbEntity
  8
0
 62
     7
370
    70
100
AcDbCircle
 10
38.02519109113931
 20
67.03033306231612
 30
0.0
 40
8.0
100
AcDbArc
 50
180.0
 51
269.4248209999998
  0
CIRCLE
  5
106D
330
1F
100
AcDbEntity
  8
0
 62
     7
370
    70
100
AcDbCircle
 10
97.52873675649825
 20
131.677928737387
 30
0.0
 40
2.0901075
  0
CIRCLE
  5
106E
330
1F
100
AcDbEntity
  8
0
 62
     7
370
    70
100
AcDbCircle
 10
37.5288387564983
 20
131.677928737387
 30
0.0
 40
2.0718885
  0
CIRCLE
  5
106F
330
1F
100
AcDbEntity
  8
0
 62
     7
370
    70
100
AcDbCircle
 10
37.5289767564983
 20
71.669436237387
 30
0.0
 40
2.0681655
  0
CIRCLE
  5
1070
330
1F
100
AcDbEntity
  8
0
 62
     7
370
    70
100
AcDbCircle
 10
97.52859825649828
 20
71.669436237387
 30
0.0
 40
2.0750345
  0
LINE
  5
1071
330
1F
100
AcDbEntity
  8
0
 62
     7
 48
0.334324
370
    70
100
AcDbLine
 10
84.02878775649821
 20
114.8500937373871
 30
0.0
 11
84.02881375649824
 21
108.1636127373871
 31
0.0
  0
LINE
  5
1072
330
1F
100
AcDbEntity
  8
0
 62
     7
 48
0.334319
370
    70
100
AcDbLine
 10
51.0287877564982
 20
114.8500937373871
 30
0.0
 11
51.02876175649821
 21
108.163714237387
 31
0.0
  0
ARC
  5
1073
330
1F
100
AcDbEntity
  8
0
 62
     7
370
    70
100
AcDbCircle
 10
67.52872775649826
 20
88.71896423738702
 30
0.0
 40
25.5019055
100
AcDbArc
 50
49.68316499999794
 51
130.3164809999976
  0
ELLIPSE
  5
1074
330
1F
100
AcDbEntity
  8
0
 62
     7
370
    70
100
AcDbEllipse
 10
67.52870875649819
 20
90.60692723738702
 30
0.0
 11
25.19991874694824
 21
-0.0011966138841687
 31
0.0
210
0.0
220
0.0
230
1.0
 40
0.984811
 41
2.286072745738822
 42
3.240960417328945
  0
ELLIPSE
  5
1075
330
1F
100
AcDbEntity
  8
0
 62
     7
370
    70
100
AcDbEllipse
 10
67.52878775649818
 20
90.60698423738701
 30
0.0
 11
-25.20000076293945
 21
0.0
 31
0.0
210
0.0
220
0.0
230
0.9999999999999998
 40
0.9848079999999999
 41
3.042428282708312
 42
3.997154389276201
  0
ELLIPSE
  5
1076
330
1F
100
AcDbEntity
  8
0
 62
     7
370
    70
100
AcDbEllipse
 10
67.52878775649818
 20
89.44537023738702
 30
0.0
 11
-25.08323478698731
 21
0.0
 31
0.0
210
0.0
220
0.0
230
0.9999999999999998
 40
0.9848080000000001
 41
3.039935981844807
 42
3.042428282708314
  0
LINE
  5
1077
330
1F
100
AcDbEntity
  8
0
 62
     7
 48
0.384586
370
    70
100
AcDbLine
 10
51.0287877564982
 20
114.850094237387
 30
0.0
 11
51.0287877564982
 21
130.233530237387
 31
0.0
  0
LINE
  5
1078
330
1F
100
AcDbEntity
  8
0
 62
     7
 48
0.000102
370
    70
100
AcDbLine
 10
51.11834075649827
 20
116.207841237387
 30
0.0
 11
51.11832475649821
 21
116.211927237387
 31
0.0
  0
ELLIPSE
  5
1079
330
1F
100
AcDbEntity
  8
0
 62
     7
370
    70
100
AcDbEllipse
 10
52.02895175649825
 20
130.229418237387
 30
0.0
 11
0.0793691575527328
 21
-1.023235797882077
 31
0.0
210
0.0
220
0.0
230
0.9999999999999998
 40
0.974369
 41
3.06615800755616
 42
4.632947828720072
  0
LINE
  5
107A
330
1F
100
AcDbEntity
  8
0
 62
     7
 48
0.066346
370
    70
100
AcDbLine
 10
52.02494575649829
 20
131.255574237387
 30
0.0
 11
54.67878775649829
 21
131.255574237387
 31
0.0
  0
LINE
  5
107B
330
1F
100
AcDbEntity
  8
0
 62
     7
 48
0.000132
370
    70
100
AcDbLine
 10
54.67878775649829
 20
131.255574237387
 30
0.0
 11
54.68408375649822
 21
131.255574237387
 31
0.0
  0
LINE
  5
107C
330
1F
100
AcDbEntity
  8
0
 62
     7
 48
0.012608
370
    70
100
AcDbLine
 10
54.68408375649822
 20
131.255574237387
 30
0.0
 11
55.18840175649828
 21
131.255574237387
 31
0.0
  0
LINE
  5
107D
330
1F
100
AcDbEntity
  8
0
 62
     7
370
    70
100
AcDbLine
 10
79.8701477564982
 20
131.255574237387
 30
0.0
 11
55.18840175649828
 21
131.255574237387
 31
0.0
  0
LINE
  5
107E
330
1F
100
AcDbEntity
  8
0
 62
     7
 48
0.002372
370
    70
100
AcDbLine
 10
51.5022027564983
 20
116.117353237387
 30
0.0
 11
51.40751875649822
 21
116.123627237387
 31
0.0
  0
SPLINE
  5
107F
330
1F
100
AcDbEntity
  8
0
 62
     7
370
    70
100
AcDbSpline
210
0.0
220
0.0
230
1.0
 70
  1064
 71
     3
 72
    15
 73
    11
 74
     9
 42
0.000000001
 43
0.0000000001
 44
0.0000000001
 40
0.0
 40
0.0
 40
0.0
 40
0.0
 40
0.0625976651478581
 40
0.1231805366396737
 40
0.1827531732390507
 40
0.2499379572371758
 40
0.2895607550385856
 40
0.2988191891426424
 40
0.3061441677756836
 40
0.3125641846781946
 40
0.3125641846781946
 40
0.3125641846781946
 40
0.3125641846781946
 10
51.40751848627846
 20
116.1236269159987
 30
0.0
 10
51.38672440715296
 20
116.1253052962635
 30
0.0
 10
51.34580553550566
 20
116.1286080357702
 30
0.0
 10
51.28525774698523
 20
116.1362591919137
 30
0.0
 10
51.22417239451818
 20
116.1479151742099
 30
0.0
 10
51.16887659761086
 20
116.1593228275354
 30
0.0
 10
51.13655639824488
 20
116.1817286195865
 30
0.0
 10
51.1225963012393
 20
116.1941970430663
 30
0.0
 10
51.11847011682203
 20
116.2010235820865
 30
0.0
 10
51.11838202444872
 20
116.2056707335565
 30
0.0
 10
51.11834087823488
 20
116.2078413265486
 30
0.0
 11
51.40751848627846
 21
116.1236269159987
 31
0.0
 11
51.34516414956634
 21
116.1291409322441
 31
0.0
 11
51.28508319458238
 21
116.1369231662684
 31
0.0
 11
51.2264786428331
 21
116.1476192190762
 31
0.0
 11
51.16199359146138
 21
116.1664732199901
 31
0.0
 11
51.129067482536
 21
116.1885149408087
 31
0.0
 11
51.12247274142702
 21
116.195013247647
 31
0.0
 11
51.11898297629237
 21
116.2014535000706
 31
0.0
 11
51.11834087823488
 21
116.2078413265486
 31
0.0
  0
SPLINE
  5
1080
330
1F
100
AcDbEntity
  8
0
 62
     7
370
    70
100
AcDbSpline
210
0.0
220
0.0
230
1.0
 70
  1064
 71
     3
 72
    18
 73
    14
 74
    12
 42
0.000000001
 43
0.0000000001
 44
0.0000000001
 40
0.0
 40
0.0
 40
0.0
 40
0.0
 40
0.0240382688841482
 40
0.0478117484726846
 40
0.065471629991526
 40
0.1624404897373255
 40
0.2538096180377018
 40
0.3211159167774519
 40
0.3727152501636767
 40
0.3991645591217734
 40
0.4018740102961839
 40
0.4044068392157257
 40
0.4068227071419095
 40
0.4068227071419095
 40
0.4068227071419095
 40
0.4068227071419095
 10
51.50200467994181
 20
116.1193081236647
 30
0.0
 10
51.49399895280827
 20
116.1196488355749
 30
0.0
 10
51.47807568421126
 20
116.1203265063438
 30
0.0
 10
51.45629183534656
 20
116.1216479594086
 30
0.0
 10
51.41026076920858
 20
116.1248279376343
 30
0.0
 10
51.34190924051608
 20
116.1295557650696
 30
0.0
 10
51.25680887245064
 20
116.1419061042485
 30
0.0
 10
51.19008565910533
 20
116.1572355959138
 30
0.0
 10
51.13936615247819
 20
116.169753149976
 30
0.0
 10
51.12506509672105
 20
116.1938753705
 30
0.0
 10
51.11979458281401
 20
116.2030189787886
 30
0.0
 10
51.1188774938313
 20
116.2054214120627
 30
0.0
 10
51.11858851775
 20
116.2070479527537
 30
0.0
 10
51.11844744464166
 20
116.207842001694
 30
0.0
 11
51.50200467994181
 21
116.1193081236647
 31
0.0
 11
51.47799135340516
 21
116.1204028928597
 31
0.0
 11
51.45425951967784
 21
116.1218094488257
 31
0.0
 11
51.43664019651861
 21
116.1230056372181
 31
0.0
 11
51.33999734593303
 21
116.1309503959365
 31
0.0
 11
51.24961794983618
 21
116.1443624191821
 31
0.0
 11
51.18389689167711
 21
116.1588841396207
 31
0.0
 11
51.13645278834638
 21
116.1791707920071
 31
0.0
 11
51.12111972026227
 21
116.2007221949194
 31
0.0
 11
51.11983040081739
 21
116.2031052142302
 31
0.0
 11
51.11894302981966
 21
116.20547751165
 31
0.0
 11
51.11844744464166
 21
116.207842001694
 31
0.0
  0
LINE
  5
1081
330
1F
100
AcDbEntity
  8
0
 62
     7
 48
0.066346
370
    70
100
AcDbLine
 10
80.37878775649828
 20
131.255574237387
 30
0.0
 11
83.0326257564983
 21
131.255574237387
 31
0.0
  0
LINE
  5
1082
330
1F
100
AcDbEntity
  8
0
 62
     7
 48
0.000108
370
    70
100
AcDbLine
 10
80.37448175649819
 20
131.255574237387
 30
0.0
 11
80.37878775649828
 21
131.255574237387
 31
0.0
  0
LINE
  5
1083
330
1F
100
AcDbEntity
  8
0
 62
     7
 48
0.012608
370
    70
100
AcDbLine
 10
79.8701477564982
 20
131.255574237387
 30
0.0
 11
80.37448175649819
 21
131.255574237387
 31
0.0
  0
SPLINE
  5
1084
330
1F
100
AcDbEntity
  8
0
 62
     7
370
    70
100
AcDbSpline
210
0.0
220
0.0
230
1.0
 70
  1064
 71
     3
 72
    21
 73
    17
 74
    15
 42
0.000000001
 43
0.0000000001
 44
0.0000000001
 40
0.0
 40
0.0
 40
0.0
 40
0.0
 40
2.044012825489046
 40
4.055319841559091
 40
6.018045603928547
 40
9.233024767372922
 40
12.37663611441207
 40
13.58826734339178
 40
17.2940154323635
 40
21.00059217033729
 40
23.50318437847729
 40
26.72120307931662
 40
30.03811203794597
 40
30.71110414190105
 40
31.38797172319367
 40
32.06851156015709
 40
32.06851156015709
 40
32.06851156015709
 40
32.06851156015709
 10
83.55730660736686
 20
116.122538685234
 30
0.0
 10
82.87673013738729
 20
116.0903234188305
 30
0.0
 10
81.52646695508748
 20
116.0264083555697
 30
0.0
 10
79.52209818982524
 20
115.9446014642775
 30
0.0
 10
77.1271288775668
 20
115.8636399476757
 30
0.0
 10
74.35446177992315
 20
115.7827664066521
 30
0.0
 10
71.8312089785113
 20
115.7488550299611
 30
0.0
 10
69.14436505647912
 20
115.7218464039858
 30
0.0
 10
66.26968714699192
 20
115.6991350672838
 30
0.0
 10
62.96479367264872
 20
115.739167770842
 30
0.0
 10
59.82302528350179
 20
115.801780652003
 30
0.0
 10
56.81171631567798
 20
115.8900626261177
 30
0.0
 10
54.41121446207782
 20
115.992059078976
 30
0.0
 10
52.8569624245529
 20
116.0565292995019
 30
0.0
 10
52.18081143151071
 20
116.0861792697615
 30
0.0
 10
51.72881892943357
 20
116.1069430724537
 30
0.0
 10
51.50221128051747
 20
116.117353060427
 30
0.0
 11
83.55730660736686
 21
116.122538685234
 31
0.0
 11
81.51547541765488
 21
116.0281256380259
 31
0.0
 11
79.50583294219369
 21
115.9463146747337
 31
0.0
 11
77.54426560496589
 21
115.8788906449685
 31
0.0
 11
74.33049929282955
 21
115.7905893858661
 31
0.0
 11
71.18725178678793
 21
115.7427624374321
 31
0.0
 11
69.97568345301356
 21
115.7304170887511
 31
0.0
 11
66.26998366539315
 21
115.7114966514493
 31
0.0
 11
62.56360475086919
 21
115.7497909912474
 31
0.0
 11
60.06152537234029
 21
115.8004520589764
 31
0.0
 11
56.84492668433346
 21
115.8960409666193
 31
0.0
 11
53.53066546072657
 21
116.028545991171
 31
0.0
 11
52.8582641998156
 21
116.0567402514242
 31
0.0
 11
52.18204499916009
 21
116.0863597596872
 31
0.0
 11
51.50221128051747
 21
116.117353060427
 31
0.0
  0
SPLINE
  5
1085
330
1F
100
AcDbEntity
  8
0
 62
     7
370
    70
100
AcDbSpline
210
0.0
220
0.0
230
1.0
 70
  1064
 71
     3
 72
    15
 73
    11
 74
     9
 42
0.000000001
 43
0.0000000001
 44
0.0000000001
 40
0.0
 40
0.0
 40
0.0
 40
0.0
 40
0.0624031759240509
 40
0.1227780466777919
 40
0.1821062140767845
 40
0.2489430127747689
 40
0.2883595172936897
 40
0.2975750235512701
 40
0.3048759966548447
 40
0.3112805238211876
 40
0.3112805238211876
 40
0.3112805238211876
 40
0.3112805238211876
 10
83.65190452481233
 20
116.1288738381056
 30
0.0
 10
83.67263266069766
 20
116.1305630589733
 30
0.0
 10
83.71341520097045
 20
116.1338865955639
 30
0.0
 10
83.77374274793991
 20
116.1415624888064
 30
0.0
 10
83.83455300311375
 20
116.1532350492531
 30
0.0
 10
83.88957220977149
 20
116.1646673050631
 30
0.0
 10
83.92167634373905
 20
116.1870321587735
 30
0.0
 10
83.93553766949608
 20
116.1994760017766
 30
0.0
 10
83.93963291591933
 20
116.2062850443625
 30
0.0
 10
83.93972233535134
 20
116.2109181225909
 30
0.0
 10
83.93976412070541
 20
116.2130831420935
 30
0.0
 11
83.65190452481233
 21
116.1288738381056
 31
0.0
 11
83.71406076609764
 21
116.134419830775
 31
0.0
 11
83.7739285305822
 21
116.1422285306766
 31
0.0
 11
83.83228068703822
 21
116.152945679731
 31
0.0
 11
83.89640276004469
 21
116.1718008491428
 31
0.0
 11
83.92910800239647
 21
116.1938014843882
 31
0.0
 11
83.93565655697022
 21
116.2002854637665
 31
0.0
 11
83.93912357178878
 21
116.2067107276916
 31
0.0
 11
83.93976412070541
 21
116.2130831420935
 31
0.0
  0
LINE
  5
1086
330
1F
100
AcDbEntity
  8
0
 62
     7
 48
0.00237
370
    70
100
AcDbLine
 10
83.55731475649825
 20
116.122538237387
 30
0.0
 11
83.6519047564983
 21
116.128874237387
 31
0.0
  0
SPLINE
  5
1087
330
1F
100
AcDbEntity
  8
0
 62
     7
370
    70
100
AcDbSpline
210
0.0
220
0.0
230
1.0
 70
  1064
 71
     3
 72
    15
 73
    11
 74
     9
 42
0.000000001
 43
0.0000000001
 44
0.0000000001
 40
0.0
 40
0.0
 40
0.0
 40
0.0
 40
0.0863799498204344
 40
0.1717854370583295
 40
0.2603184382630758
 40
0.3443699354400093
 40
0.3873668202880332
 40
0.3941767013471952
 40
0.3998775000391005
 40
0.4049411950286744
 40
0.4049411950286744
 40
0.4049411950286744
 40
0.4049411950286744
 10
83.55751332199337
 20
116.1244995047766
 30
0.0
 10
83.58627444945126
 20
116.1255746358435
 30
0.0
 10
83.64347224663584
 20
116.1277127692946
 30
0.0
 10
83.73017423781488
 20
116.1355350298232
 30
0.0
 10
83.81437261223291
 20
116.1483684999222
 30
0.0
 10
83.88782544711794
 20
116.1602765201679
 30
0.0
 10
83.92278241902493
 20
116.1895539135785
 30
0.0
 10
83.93582963880657
 20
116.2026614514472
 30
0.0
 10
83.93888608399102
 20
116.2078243005679
 30
0.0
 10
83.9394106390422
 20
116.2114012129493
 30
0.0
 10
83.93965739349836
 20
116.2130838181736
 30
0.0
 11
83.55751332199337
 21
116.1244995047766
 31
0.0
 11
83.64380107343022
 21
116.1284894525149
 31
0.0
 11
83.7288516905051
 21
116.136266970469
 31
0.0
 11
83.81648723681347
 21
116.148840884957
 31
0.0
 11
83.8973889605516
 21
116.1716348594653
 31
0.0
 11
83.9312639851472
 21
116.1981153204749
 31
0.0
 11
83.93586370565889
 21
116.2031369786925
 31
0.0
 11
83.93861894023748
 21
116.208127748988
 31
0.0
 11
83.93965739349836
 21
116.2130838181736
 31
0.0
  0
LINE
  5
1088
330
1F
100
AcDbEntity
  8
0
 62
     7
 48
0.000103
370
    70
100
AcDbLine
 10
83.93976375649833
 20
116.213083237387
 30
0.0
 11
83.93978075649821
 21
116.217198237387
 31
0.0
  0
ELLIPSE
  5
1089
330
1F
100
AcDbEntity
  8
0
 62
     7
370
    70
100
AcDbEllipse
 10
83.02862075649828
 20
130.229418237387
 30
0.0
 11
-0.0794053971767282
 21
-1.023235321044922
 31
0.0
210
0.0
220
0.0
230
1.0
 40
0.97437
 41
1.65027359513605
 42
3.217068570146972
  0
ELLIPSE
  5
108A
330
1F
100
AcDbEntity
  8
0
 62
     7
370
    70
100
AcDbEllipse
 10
67.52878775649818
 20
88.990956237387
 30
0.0
 11
19.65517997741699
 21
0.0
 31
0.0
210
0.0
220
0.0
230
1.0
 40
0.9848079999999999
 41
2.070796326794904
 42
8.353981633974488
  0
LINE
  5
108B
330
1F
100
AcDbEntity
  8
0
 62
     7
 48
0.4633720000000002
370
    70
100
AcDbLine
 10
52.5287877564982
 20
80.71642723738705
 30
0.0
 11
52.5287877564982
 21
99.251310237387
 31
0.0
  0
LINE
  5
108C
330
1F
100
AcDbEntity
  8
0
 62
     7
 48
0.05718
370
    70
100
AcDbLine
 10
82.5287877564982
 20
99.251310237387
 30
0.0
 11
82.5287877564982
 21
96.96411623738704
 31
0.0
  0
LINE
  5
108D
330
1F
100
AcDbEntity
  8
0
 62
     7
 48
0.459844
370
    70
100
AcDbLine
 10
82.5287877564982
 20
96.96411623738704
 30
0.0
 11
82.5287877564982
 21
78.57034723738704
 31
0.0
  0
SPLINE
  5
108E
330
1F
100
AcDbEntity
  8
0
 62
     7
370
    70
100
AcDbSpline
210
0.0
220
0.0
230
1.0
 70
  1064
 71
     3
 72
    15
 73
    11
 74
     9
 42
0.000000001
 43
0.0000000001
 44
0.0000000001
 40
0.0
 40
0.0
 40
0.0
 40
0.0
 40
0.1267557750621648
 40
0.2461576087020829
 40
0.3571745235010422
 40
0.5102454992120221
 40
0.6825583627383529
 40
0.7187308661693179
 40
0.7565866117564866
 40
0.7966840217609544
 40
0.7966840217609544
 40
0.7966840217609544
 40
0.7966840217609544
 10
82.5287877564982
 20
78.57034746428077
 30
0.0
 10
82.5326496701318
 20
78.5275297673444
 30
0.0
 10
82.54014944222973
 20
78.44437851145238
 30
0.0
 10
82.48763266016451
 20
78.3330140668516
 30
0.0
 10
82.41372256628848
 20
78.23007010282371
 30
0.0
 10
82.30690317238565
 20
78.12351937275884
 30
0.0
 10
82.1849704897008
 20
78.09862015289944
 30
0.0
 10
82.10581695518463
 20
78.07747099701484
 30
0.0
 10
82.0681341368718
 20
78.07134640498048
 30
0.0
 10
82.04215226634255
 20
78.0703849970299
 30
0.0
 10
82.0287877564983
 20
78.06989046966302
 30
0.0
 11
82.5287877564982
 21
78.57034746428077
 31
0.0
 11
82.5287877564982
 21
78.44359168921861
 31
0.0
 11
82.48357240206061
 21
78.33308209868611
 31
0.0
 11
82.41939884177744
 21
78.24249231155722
 31
0.0
 11
82.30495433943595
 21
78.14084006372707
 31
0.0
 11
82.14132626521664
 21
78.08682547066259
 31
0.0
 11
82.1062010265795
 21
78.07818442818223
 31
0.0
 11
82.06881705919206
 21
78.0722265379234
 31
0.0
 11
82.0287877564983
 21
78.06989046966302
 31
0.0
  0
ELLIPSE
  5
108F
330
1F
100
AcDbEntity
  8
0
 62
     7
370
    70
100
AcDbEllipse
 10
67.52878775649818
 20
87.06035623738697
 30
0.0
 11
-53.76615905761719
 21
0.0
 31
0.0
210
0.0
220
0.0
230
1.0
 40
0.173648
 41
1.297729019780975
 42
1.84386363380883
  0
SPLINE
  5
1090
330
1F
100
AcDbEntity
  8
0
 62
     7
370
    70
100
AcDbSpline
210
0.0
220
0.0
230
1.0
 70
  1064
 71
     3
 72
    15
 73
    11
 74
     9
 42
0.000000001
 43
0.0000000001
 44
0.0000000001
 40
0.0
 40
0.0
 40
0.0
 40
0.0
 40
0.0803842643990971
 40
0.1526112538170063
 40
0.2188945000635127
 40
0.3757244306611961
 40
0.521954294523942
 40
0.6069426216733925
 40
0.6956274326222968
 40
0.7896673544960976
 40
0.7896673544960976
 40
0.7896673544960976
 40
0.7896673544960976
 10
53.0287877564982
 20
78.06989046966051
 30
0.0
 10
53.00186664557117
 20
78.07012403149624
 30
0.0
 10
52.95075633780842
 20
78.07056745366176
 30
0.0
 10
52.8801130318446
 20
78.09179239832076
 30
0.0
 10
52.79050496079151
 20
78.13175287064858
 30
0.0
 10
52.67914137240713
 20
78.19032721316157
 30
0.0
 10
52.60083191326131
 20
78.29716747287291
 30
0.0
 10
52.55101698149058
 20
78.39104574434047
 30
0.0
 10
52.52273277102502
 20
78.4774958176072
 30
0.0
 10
52.52673037543027
 20
78.53879805469181
 30
0.0
 10
52.5287877564982
 20
78.5703474650922
 30
0.0
 11
53.0287877564982
 21
78.06989046966051
 31
0.0
 11
52.94854002851025
 21
78.0745736433445
 31
0.0
 11
52.87892252460595
 21
78.09381269608913
 31
0.0
 11
52.81801457979263
 21
78.11996018146712
 31
0.0
 11
52.68403786273379
 21
78.20148236505791
 31
0.0
 11
52.5927350861019
 21
78.31570572547348
 31
0.0
 11
52.55367489273464
 21
78.39118629943641
 31
0.0
 11
52.5287877564982
 21
78.4763075432184
 31
0.0
 11
52.5287877564982
 21
78.5703474650922
 31
0.0
  0
LINE
  5
1091
330
1F
100
AcDbEntity
  8
0
 62
     7
 48
0.053652
370
    70
100
AcDbLine
 10
52.5287877564982
 20
78.57034723738704
 30
0.0
 11
52.5287877564982
 21
80.71642723738705
 31
0.0
  0
LINE
  5
1092
330
1F
100
AcDbEntity
  8
0
 62
     7
 48
0.000276
370
    70
100
AcDbLine
 10
82.0287877564983
 20
78.06989023738703
 30
0.0
 11
82.0287877564983
 21
78.08091523738702
 31
0.0
  0
ELLIPSE
  5
1093
330
1F
100
AcDbEntity
  8
0
 62
     7
370
    70
100
AcDbEllipse
 10
82.02883275649821
 20
78.55917223738703
 30
0.0
 11
0.4685574769973754
 21
0.1851061433553698
 31
0.0
210
0.0
220
0.0
230
1.0
 40
0.9420659999999998
 41
4.356013998880478
 42
5.926905707884865
  0
LINE
  5
1094
330
1F
100
AcDbEntity
  8
0
 62
     7
 48
0.000276
370
    70
100
AcDbLine
 10
53.0287877564982
 20
78.06989023738703
 30
0.0
 11
53.0287877564982
 21
78.08091523738702
 31
0.0
  0
ELLIPSE
  5
1095
330
1F
100
AcDbEntity
  8
0
 62
     7
370
    70
100
AcDbEllipse
 10
53.0287427564982
 20
78.55917223738703
 30
0.0
 11
0.4685574471950557
 21
-0.1851061880588467
 31
0.0
210
0.0
220
0.0
230
1.0
 40
0.9420659999999999
 41
3.497872362755571
 42
5.068764088829128
  0
LINE
  5
1096
330
1F
100
AcDbEntity
  8
0
 62
     7
 48
0.012658
370
    70
100
AcDbLine
 10
84.02878775649821
 20
129.727201237387
 30
0.0
 11
84.02878775649821
 21
130.233530237387
 31
0.0
  0
LINE
  5
1097
330
1F
100
AcDbEntity
  8
0
 62
     7
 48
0.028902
370
    70
100
AcDbLine
 10
42.56917275649821
 20
86.995935237387
 30
0.0
 11
42.45298275649813
 21
88.14614723738698
 31
0.0
  0
LINE
  5
1098
330
1F
100
AcDbEntity
  8
0
 62
     7
 48
0.028902
370
    70
100
AcDbLine
 10
92.48879475649827
 20
86.99980723738701
 30
0.0
 11
92.60498575649817
 21
88.15003823738704
 31
0.0
  0
ARC
  5
1099
330
1F
100
AcDbEntity
  8
0
 62
     7
370
    70
100
AcDbCircle
 10
66.88920575649817
 20
89.46552923738705
 30
0.0
 40
24.445385
100
AcDbArc
 50
185.8049590000002
 51
209.0442130000001
  0
ARC
  5
109A
330
1F
100
AcDbEntity
  8
0
 62
     7
370
    70
100
AcDbCircle
 10
67.1807607564982
 20
89.62971923738704
 30
0.0
 40
24.78066
100
AcDbArc
 50
209.0488289999993
 51
229.3803290000004
  0
ARC
  5
109B
330
1F
100
AcDbEntity
  8
0
 62
     7
370
    70
100
AcDbCircle
 10
66.14849775649826
 20
78.17156723738702
 30
0.0
 40
16.75389
100
AcDbArc
 50
206.6205739999995
 51
209.1196599999977
  0
SPLINE
  5
109C
330
1F
100
AcDbEntity
  8
0
 62
     7
370
    70
100
AcDbSpline
210
0.0
220
0.0
230
1.0
 70
  1064
 71
     3
 72
    49
 73
    45
 74
    43
 42
0.000000001
 43
0.0000000001
 44
0.0000000001
 40
0.0
 40
0.0
 40
0.0
 40
0.0
 40
0.3002265070733036
 40
0.9036756353970583
 40
1.813276230242271
 40
2.731451374366544
 40
3.658095065377167
 40
4.593020139893717
 40
5.536016430114205
 40
6.48682437735933
 40
7.445146410293307
 40
8.410631830063664
 40
9.382866146888373
 40
10.36137535326212
 40
11.34564128645034
 40
12.33512227181072
 40
13.32926016843034
 40
14.32747900361399
 40
15.32918186098057
 40
16.33374834773849
 40
17.34053057699435
 40
18.34884911397508
 40
19.35798732813161
 40
20.36719041334031
 40
21.37568804894836
 40
22.38272390405045
 40
23.38757964350089
 40
24.3895745952179
 40
25.38806041087472
 40
26.38241680069752
 40
27.37204888559897
 40
28.35638412843886
 40
29.33487311762799
 40
30.3070007050834
 40
31.27230238134922
 40
32.23037455212986
 40
33.18087259046978
 40
34.12350253294093
 40
35.05786928518646
 40
35.98376585412102
 40
36.90101362771444
 40
37.80963543324204
 40
38.41241673340251
 40
38.71229627633196
 40
38.71229627633196
 40
38.71229627633196
 40
38.71229627633196
 10
83.54658721801547
 20
70.020729790409
 30
0.0
 10
83.49819607756415
 20
69.93313180212194
 30
0.0
 10
83.35253973621972
 20
69.66946365204257
 30
0.0
 10
83.04525747064817
 20
69.14872506028925
 30
0.0
 10
82.59333247108257
 20
68.47541894270538
 30
0.0
 10
82.04487049356858
 20
67.73865738768306
 30
0.0
 10
81.45169092034253
 20
67.02622083403892
 30
0.0
 10
80.81605668237669
 20
66.34012607169363
 30
0.0
 10
80.13895009627239
 20
65.68327387091343
 30
0.0
 10
79.42197180828009
 20
65.05826051543163
 30
0.0
 10
78.66682840000672
 20
64.46768061917357
 30
0.0
 10
77.87547463122365
 20
63.91402462476052
 30
0.0
 10
77.05007485429408
 20
63.39969001456415
 30
0.0
 10
76.19300885329362
 20
62.92694992674476
 30
0.0
 10
75.30685431229997
 20
62.4979199193587
 30
0.0
 10
74.39435878545282
 20
62.11454336169563
 30
0.0
 10
73.45842035189484
 20
61.77857233500276
 30
0.0
 10
72.50207215704289
 20
61.49155788252963
 30
0.0
 10
71.52847045687522
 20
61.25484001944768
 30
0.0
 10
70.54088284806022
 20
61.06953834822833
 30
0.0
 10
69.54267632773405
 20
60.93654229027951
 30
0.0
 10
68.53730555840702
 20
60.85650123881226
 30
0.0
 10
67.52829922677614
 20
60.82981487627217
 30
0.0
 10
66.51923627896903
 20
60.85662276486984
 30
0.0
 10
65.51371006514438
 20
60.93680388242491
 30
0.0
 10
64.51528237149559
 20
61.06996379398227
 30
0.0
 10
63.52744672245832
 20
61.25545405962464
 30
0.0
 10
62.55360432190993
 20
61.49237979099671
 30
0.0
 10
61.59705061801736
 20
61.77961178875237
 30
0.0
 10
60.66096349956684
 20
62.11579702493494
 30
0.0
 10
59.74839160707391
 20
62.49936960520882
 30
0.0
 10
58.86224115801934
 20
62.92856109480648
 30
0.0
 10
58.00526023606608
 20
63.40141529218823
 30
0.0
 10
57.18001590799061
 20
63.91580288482851
 30
0.0
 10
56.38887280231545
 20
64.46944515368059
 30
0.0
 10
55.63398329246212
 20
65.05994679283232
 30
0.0
 10
54.91728923865998
 20
65.68481566085353
 30
0.0
 10
54.24051847577683
 20
66.3414223054004
 30
0.0
 10
53.6052920370167
 20
67.02713432382998
 30
0.0
 10
53.01259430423677
 20
67.73900202360775
 30
0.0
 10
52.46462705708302
 20
68.47502799075428
 30
0.0
 10
52.0131207173107
 20
69.14757998565621
 30
0.0
 10
51.70609987720546
 20
69.66770044798296
 30
0.0
 10
51.56056066527793
 20
69.93104685094545
 30
0.0
 10
51.51221002208204
 20
70.01853508039181
 30
0.0
 11
83.54658721801547
 21
70.020729790409
 31
0.0
 11
83.40058788257906
 21
69.75839384243092
 31
0.0
 11
83.09318650717624
 21
69.23911044689901
 31
0.0
 11
82.58893436797555
 21
68.4820747659339
 31
0.0
 11
82.04003433120758
 21
67.74603513050402
 31
0.0
 11
81.44734682074311
 21
67.0337219655062
 31
0.0
 11
80.81196305110266
 21
66.34788498761913
 31
0.0
 11
80.13517779041109
 21
65.69122395308133
 31
0.0
 11
79.41850510110575
 21
65.0663911682914
 31
0.0
 11
78.66366914544379
 21
64.47596437448322
 31
0.0
 11
77.87261251487635
 21
63.92243794961768
 31
0.0
 11
77.04750053480914
 21
63.40821058048883
 31
0.0
 11
76.19071559802462
 21
62.93555865881989
 31
0.0
 11
75.30483919147946
 21
62.50660362672271
 31
0.0
 11
74.39262021726931
 21
62.12329022559939
 31
0.0
 11
73.45695539545499
 21
61.78737133849352
 31
0.0
 11
72.50087621984246
 21
61.50039842535452
 31
0.0
 11
71.52753750765502
 21
61.26371220730689
 31
0.0
 11
70.54020501854299
 21
61.07843300647481
 31
0.0
 11
69.5422439490558
 21
60.94545119969889
 31
0.0
 11
68.5371067107028
 21
60.86541743123172
 31
0.0
 11
67.52832136818266
 21
60.83873282916322
 31
0.0
 11
66.51947436064673
 21
60.86553921982921
 31
0.0
 11
65.51416861464598
 21
60.94571301907132
 31
0.0
 11
64.51597368988561
 21
61.07885995160771
 31
0.0
 11
63.52838260826938
 21
61.26432939011062
 31
0.0
 11
62.55479433791236
 21
61.5012254919983
 31
0.0
 11
61.59850236824592
 21
61.78841809778639
 31
0.0
 11
60.66268309807423
 21
62.12455337346682
 31
0.0
 11
59.75038338102358
 21
62.50806463762433
 31
0.0
 11
58.86450888151289
 21
62.93718261838643
 31
0.0
 11
58.00780949592966
 21
63.40994774475014
 31
0.0
 11
57.18285537414462
 21
63.92422660222121
 31
0.0
 11
56.39201268486429
 21
64.47773827058373
 31
0.0
 11
55.63743200871464
 21
65.06808586955052
 31
0.0
 11
54.92104400330866
 21
65.69277358881389
 31
0.0
 11
54.24456269050265
 21
66.34922179078221
 31
0.0
 11
53.60958643508194
 21
67.03467520477452
 31
0.0
 11
53.01738075922667
 21
67.74641735882304
 31
0.0
 11
52.46900312925862
 21
68.4816897254415
 31
0.0
 11
51.96522280599269
 21
69.237863628304
 31
0.0
 11
51.65808596192237
 21
69.75652754148639
 31
0.0
 11
51.51221002208204
 21
70.01853508039181
 31
0.0
  0
ARC
  5
109D
330
1F
100
AcDbEntity
  8
0
 62
     7
370
    70
100
AcDbCircle
 10
68.90855175649829
 20
78.171778237387
 30
0.0
 40
16.754456
100
AcDbArc
 50
330.8891770000002
 51
333.379546999999
  0
ARC
  5
109E
330
1F
100
AcDbEntity
  8
0
 62
     7
370
    70
100
AcDbCircle
 10
84.33561675649817
 20
70.43420223738704
 30
0.0
 40
0.5044390000000001
100
AcDbArc
 50
130.173204999998
 51
152.8322730000013
  0
ELLIPSE
  5
109F
330
1F
100
AcDbEntity
  8
0
 62
     7
370
    70
100
AcDbEllipse
 10
67.52873975649821
 20
89.44701723738701
 30
0.0
 11
25.08335876464845
 21
-0.0043395636599638
 31
0.0
210
0.0
220
0.0
230
0.9999999999999998
 40
0.9851129999999999
 41
5.42947761827206
 42
6.181669334023661
  0
SPLINE
  5
10A0
330
1F
100
AcDbEntity
  8
0
 62
     7
370
    70
100
AcDbSpline
210
0.0
220
0.0
230
1.0
 70
  1064
 71
     3
 72
    41
 73
    37
 74
    35
 42
0.000000001
 43
0.0000000001
 44
0.0000000001
 40
0.0
 40
0.0
 40
0.0
 40
0.0
 40
0.0088363568544594
 40
0.0262832910377943
 40
0.0521406451695774
 40
0.0773901194462548
 40
0.1021042767604086
 40
0.126346766865699
 40
0.1501754478288863
 40
0.1736426169085343
 40
0.1967975784604938
 40
0.2196850464299624
 40
0.2423485217834568
 40
0.2648274987524127
 40
0.2871626593043076
 40
0.3093922278419175
 40
0.3315570213232681
 40
0.3536954896135204
 40
0.3758492332247452
 40
0.3980575165201456
 40
0.4203636617712306
 40
0.4428090360139822
 40
0.4654412366128261
 40
0.4883075997543602
 40
0.5114645448217118
 40
0.5349685637108046
 40
0.5588862779260611
 40
0.5832887094714284
 40
0.6082594972813396
 40
0.6338921766015284
 40
0.6602947522243526
 40
0.687593174224186
 40
0.7159352258974452
 40
0.7454992974761989
 40
0.765632395518367
 40
0.7759330187384929
 40
0.7759330187384929
 40
0.7759330187384929
 40
0.7759330187384929
 10
52.5287877564982
 20
99.25131028149223
 30
0.0
 10
52.52877890800716
 20
99.25425571879552
 30
0.0
 10
52.52875258862363
 20
99.26301677124635
 30
0.0
 10
52.52916628432902
 20
99.28039768673761
 30
0.0
 10
52.53097024217336
 20
99.30319034889075
 30
0.0
 10
52.53410230593953
 20
99.32827742512571
 30
0.0
 10
52.53839252458331
 20
99.35264861961806
 30
0.0
 10
52.54374391567871
 20
99.37632216693652
 30
0.0
 10
52.55011399672821
 20
99.39931119426036
 30
0.0
 10
52.55745606343163
 20
99.42162678442308
 30
0.0
 10
52.56573293873391
 20
99.44327706963548
 30
0.0
 10
52.57491258293129
 20
99.46426803807158
 30
0.0
 10
52.58496778959222
 20
99.48460274574655
 30
0.0
 10
52.59587610707361
 20
99.50428252280842
 30
0.0
 10
52.60761902447823
 20
99.52330616544564
 30
0.0
 10
52.62018262095847
 20
99.54167132098525
 30
0.0
 10
52.63355658648014
 20
99.55937294452114
 30
0.0
 10
52.64773493980749
 20
99.5764042787761
 30
0.0
 10
52.66271468863656
 20
99.59275499653712
 30
0.0
 10
52.67849683584064
 20
99.60841227164156
 30
0.0
 10
52.69508486771546
 20
99.62335893225478
 30
0.0
 10
52.71248640896315
 20
99.63757481148489
 30
0.0
 10
52.73071186226304
 20
99.65103497293879
 30
0.0
 10
52.7497770093201
 20
99.66371097831794
 30
0.0
 10
52.76970109384363
 20
99.67556843735833
 30
0.0
 10
52.79050944330315
 20
99.68656727878158
 30
0.0
 10
52.81223156801612
 20
99.69665935895188
 30
0.0
 10
52.8349042886573
 20
99.7057883578166
 30
0.0
 10
52.85857093917464
 20
99.71388673678283
 30
0.0
 10
52.88328351077941
 20
99.72087493100335
 30
0.0
 10
52.90910297468994
 20
99.72665217334828
 30
0.0
 10
52.93610090821347
 20
99.73111364594807
 30
0.0
 10
52.96436186766512
 20
99.73406450104921
 30
0.0
 10
52.9903650434824
 20
99.73534966362556
 30
0.0
 10
53.01037075808479
 20
99.73497056365816
 30
0.0
 10
53.02050141755827
 20
99.73443957930115
 30
0.0
 10
53.02393024919239
 20
99.73425986188342
 30
0.0
 11
52.5287877564982
 21
99.25131028149223
 31
0.0
 11
52.5287877564982
 21
99.26014663834671
 31
0.0
 11
52.52922875317947
 21
99.27758799822271
 31
0.0
 11
52.53118239874805
 21
99.3033714431378
 31
0.0
 11
52.53433503857228
 21
99.3284233255698
 31
0.0
 11
52.5386157696476
 21
99.3527639277236
 31
0.0
 11
52.54396409786891
 21
99.37640909026782
 31
0.0
 11
52.55032832385165
 21
99.39937216201542
 31
0.0
 11
52.5576641264223
 21
99.42166328188989
 31
0.0
 11
52.56593401789825
 21
99.44329106817162
 31
0.0
 11
52.57510578558423
 21
99.4642604474559
 31
0.0
 11
52.58515267585766
 21
99.48457529697373
 31
0.0
 11
52.59605151812593
 21
99.50423539979091
 31
0.0
 11
52.60778442163489
 21
99.52324061939313
 31
0.0
 11
52.62033658760917
 21
99.54158719527862
 31
0.0
 11
52.63369864116315
 21
99.55927147063533
 31
0.0
 11
52.64786348599681
 21
99.57628525766459
 31
0.0
 11
52.66282928936457
 21
99.5926196718123
 31
0.0
 11
52.67859559430807
 21
99.60826037113674
 31
0.0
 11
52.69516727813297
 21
99.62319166080542
 31
0.0
 11
52.7125498905683
 21
99.63739164706669
 31
0.0
 11
52.73075544090328
 21
99.6508368856643
 31
0.0
 11
52.7497971104302
 21
99.66349727210975
 31
0.0
 11
52.76969656229924
 21
99.67534024133897
 31
0.0
 11
52.79047612709637
 21
99.68632425657844
 31
0.0
 11
52.81216686882872
 21
99.69640239015481
 31
0.0
 11
52.83480298012658
 21
99.70551749468723
 31
0.0
 11
52.85842846855755
 21
99.71360307074871
 31
0.0
 11
52.88309372152355
 21
99.72057871016421
 31
0.0
 11
52.90885836149538
 21
99.7263475338433
 31
0.0
 11
52.93579248209264
 21
99.73079241756879
 31
0.0
 11
52.96397766770835
 21
99.73377020279571
 31
0.0
 11
52.99351162659569
 21
99.7351042195703
 31
0.0
 11
53.01364178551327
 21
99.73476021560493
 31
0.0
 11
53.02393024919239
 21
99.73425986188342
 31
0.0
  0
ELLIPSE
  5
10A1
330
1F
100
AcDbEntity
  8
0
 62
     7
370
    70
100
AcDbEllipse
 10
67.52878775649818
 20
108.730704237387
 30
0.0
 11
53.79239654541016
 21
0.0
 31
0.0
210
0.0
220
0.0
230
1.0
 40
0.173677
 41
4.439364490818736
 42
4.985413470555136
  0
SPLINE
  5
10A2
330
1F
100
AcDbEntity
  8
0
 62
     7
370
    70
100
AcDbSpline
210
0.0
220
0.0
230
1.0
 70
  1064
 71
     3
 72
    41
 73
    37
 74
    35
 42
0.000000001
 43
0.0000000001
 44
0.0000000001
 40
0.0
 40
0.0
 40
0.0
 40
0.0
 40
0.0103005308412546
 40
0.0304331489572735
 40
0.0599964327202169
 40
0.0883378335983914
 40
0.1156358989214557
 40
0.1420384601022711
 40
0.1676714010530214
 40
0.1926428629184296
 40
0.2170459144613945
 40
0.2409638962945396
 40
0.2644679976372749
 40
0.2876252495280145
 40
0.310491929452229
 40
0.3331236967808086
 40
0.3555674471420308
 40
0.3778711082262686
 40
0.4000770439130055
 40
0.4222294752300427
 40
0.4443681233147491
 40
0.466534603954584
 40
0.4887669096043191
 40
0.5111049190229449
 40
0.5335858163622591
 40
0.5562499298866319
 40
0.5791372094379302
 40
0.6022919254112181
 40
0.6257590615729148
 40
0.6495876286850414
 40
0.6738297082966077
 40
0.6985433348299657
 40
0.7237925624099873
 40
0.7496498225230357
 40
0.7670967411178421
 40
0.7759329869475429
 40
0.7759329869475429
 40
0.7759329869475429
 40
0.7759329869475429
 10
82.03364526326117
 20
99.73425986192722
 30
0.0
 10
82.03707406409714
 20
99.73443957867399
 30
0.0
 10
82.04720453292381
 20
99.73497055582543
 30
0.0
 10
82.06720979618754
 20
99.73534960364212
 30
0.0
 10
82.09321232491291
 20
99.73406442190658
 30
0.0
 10
82.12147271765621
 20
99.7311139259788
 30
0.0
 10
82.14847033889432
 20
99.72665262025655
 30
0.0
 10
82.17428976335638
 20
99.72087538247086
 30
0.0
 10
82.19900270372253
 20
99.71388737515901
 30
0.0
 10
82.22266990842658
 20
99.70578899720592
 30
0.0
 10
82.24534308491454
 20
99.6966597323904
 30
0.0
 10
82.26706550295986
 20
99.68656751875043
 30
0.0
 10
82.28787405343913
 20
99.67556859161128
 30
0.0
 10
82.30779839739696
 20
99.66371110719952
 30
0.0
 10
82.32686358425871
 20
99.65103504391954
 30
0.0
 10
82.34508855148421
 20
99.63757520096333
 30
0.0
 10
82.36248888527875
 20
99.6233602382918
 30
0.0
 10
82.3790753646787
 20
99.60841507526669
 30
0.0
 10
82.39485624221288
 20
99.59275943364918
 30
0.0
 10
82.40983551052048
 20
99.57640985190138
 30
0.0
 10
82.42401434251984
 20
99.55937867544864
 30
0.0
 10
82.43738956236745
 20
99.54167607322398
 30
0.0
 10
82.44995474795286
 20
99.52330906276596
 30
0.0
 10
82.46169904558575
 20
99.5042833272074
 30
0.0
 10
82.47260818540489
 20
99.48460194289095
 30
0.0
 10
82.48266365221532
 20
99.46426648176792
 30
0.0
 10
82.49184322569787
 20
99.44327540911551
 30
0.0
 10
82.50012001759733
 20
99.42162525922233
 30
0.0
 10
82.50746197908719
 20
99.3993097713156
 30
0.0
 10
82.51383191815877
 20
99.37632089699452
 30
0.0
 10
82.51918310897464
 20
99.35264766508845
 30
0.0
 10
82.52347322753699
 20
99.32827685930442
 30
0.0
 10
82.52660540290129
 20
99.30319008741788
 30
0.0
 10
82.52840920799119
 20
99.28039753267938
 30
0.0
 10
82.52882296392114
 20
99.26301669304203
 30
0.0
 10
82.52879661488853
 20
99.25425568264833
 30
0.0
 10
82.5287877564982
 20
99.25131028230362
 30
0.0
 11
82.03364526326117
 21
99.73425986192722
 31
0.0
 11
82.04393363469035
 21
99.73476021075263
 31
0.0
 11
82.06406331432264
 21
99.7351041731151
 31
0.0
 11
82.09359648635269
 21
99.7337701953449
 31
0.0
 11
82.12178104697406
 21
99.73079268861649
 31
0.0
 11
82.14871483597002
 21
99.72634798607264
 31
0.0
 11
82.17447947644577
 21
99.72057923074221
 31
0.0
 11
82.19914504111159
 21
99.71360373208614
 31
0.0
 11
82.22277121696764
 21
99.70551808294001
 31
0.0
 11
82.24540789474017
 21
99.69640272534793
 31
0.0
 11
82.26709887505466
 21
99.68632447014343
 31
0.0
 11
82.28787852749006
 21
99.67534044426066
 31
0.0
 11
82.30777828054867
 21
99.66349738117134
 31
0.0
 11
82.32682020950219
 21
99.65083681276048
 31
0.0
 11
82.3450253857321
 21
99.63739179692366
 31
0.0
 11
82.36240671687641
 21
99.62319280900448
 31
0.0
 11
82.37897660966677
 21
99.60826324267868
 31
0.0
 11
82.39474143288822
 21
99.59262438311284
 31
0.0
 11
82.40970665007397
 21
99.5762912117172
 31
0.0
 11
82.42387196432146
 21
99.55927758155524
 31
0.0
 11
82.43723535867028
 21
99.54159220467392
 31
0.0
 11
82.44978928612487
 21
99.5232435175283
 31
0.0
 11
82.46152375526937
 21
99.50423591645179
 31
0.0
 11
82.47242348261135
 21
99.48457410857329
 31
0.0
 11
82.48247056345936
 21
99.46425864135544
 31
0.0
 11
82.49164216739179
 21
99.44328939610041
 31
0.0
 11
82.49991192611322
 21
99.42166182197631
 31
0.0
 11
82.5072476562746
 21
99.39937071292739
 31
0.0
 11
82.51361175800525
 21
99.37640772488622
 31
0.0
 11
82.51895989146758
 21
99.35276293915315
 31
0.0
 11
82.52324051320362
 21
99.32842285669678
 31
0.0
 11
82.52639319087014
 21
99.30337122766953
 31
0.0
 11
82.52834677147561
 21
99.27758787212042
 31
0.0
 11
82.52878777983879
 21
99.26014652813329
 31
0.0
 11
82.5287877564982
 21
99.25131028230362
 31
0.0
  0
ARC
  5
10A3
330
1F
100
AcDbEntity
  8
0
 62
     7
370
    70
100
AcDbCircle
 10
50.0294177564982
 20
112.870855237387
 30
0.0
 40
0.9993629999999999
100
AcDbArc
 50
312.2897770000019
 51
0.0076139999992351
  0
ELLIPSE
  5
10A4
330
1F
100
AcDbEntity
  8
0
 62
     7
370
    70
100
AcDbEllipse
 10
67.52882475649823
 20
93.31928823738701
 30
0.0
 11
1.22920751571689
 21
-25.37220764160155
 31
0.0
210
0.0
220
0.0
230
0.9999999999999998
 40
0.98414
 41
3.83076660909843
 42
4.647769990126461
  0
ARC
  5
10A5
330
1F
100
AcDbEntity
  8
0
 62
     7
370
    70
100
AcDbCircle
 10
45.87234775649828
 20
104.829207237387
 30
0.0
 40
0.005936
100
AcDbArc
 50
341.0477489999995
 51
75.7594129999991
  0
LINE
  5
10A6
330
1F
100
AcDbEntity
  8
0
 62
     7
 48
0.024465
370
    70
100
AcDbLine
 10
54.5287877564982
 20
143.024433237387
 30
0.0
 11
54.5287877564982
 21
144.003034237387
 31
0.0
  0
LINE
  5
10A7
330
1F
100
AcDbEntity
  8
0
 62
     7
 48
0.012227
370
    70
100
AcDbLine
 10
54.5287877564982
 20
142.5353592373869
 30
0.0
 11
54.5287877564982
 21
143.024433237387
 31
0.0
  0
LINE
  5
10A8
330
1F
100
AcDbEntity
  8
0
 62
     7
 48
0.281995
370
    70
100
AcDbLine
 10
54.5287877564982
 20
131.255559237387
 30
0.0
 11
54.5287877564982
 21
142.5353592373869
 31
0.0
  0
ELLIPSE
  5
10A9
330
1F
100
AcDbEntity
  8
0
 62
     7
370
    70
100
AcDbEllipse
 10
67.52875075649829
 20
93.31928823738701
 30
0.0
 11
-1.229207515716203
 21
-25.37220764160157
 31
0.0
210
0.0
220
0.0
230
1.0
 40
0.98414
 41
1.635414054601285
 42
2.452418697628464
  0
ARC
  5
10AA
330
1F
100
AcDbEntity
  8
0
 62
     7
370
    70
100
AcDbCircle
 10
89.18522775649817
 20
104.829207237387
 30
0.0
 40
0.005936
100
AcDbArc
 50
104.2405870000009
 51
198.9522510000005
  0
LINE
  5
10AC
330
1F
100
AcDbEntity
  8
0
 62
     7
 48
0.024465
370
    70
100
AcDbLine
 10
80.52878775649821
 20
143.024433237387
 30
0.0
 11
80.52878775649821
 21
144.003034237387
 31
0.0
  0
LINE
  5
10AD
330
1F
100
AcDbEntity
  8
0
 62
     7
 48
0.012227
370
    70
100
AcDbLine
 10
80.52878775649821
 20
142.5353592373869
 30
0.0
 11
80.52878775649821
 21
143.024433237387
 31
0.0
  0
LINE
  5
10AE
330
1F
100
AcDbEntity
  8
0
 62
     7
 48
0.281995
370
    70
100
AcDbLine
 10
80.52878775649821
 20
131.255559237387
 30
0.0
 11
80.52878775649821
 21
142.5353592373869
 31
0.0
  0
ARC
  5
10AF
330
1F
100
AcDbEntity
  8
0
 62
     7
370
    70
100
AcDbCircle
 10
85.0281577564983
 20
112.870855237387
 30
0.0
 40
0.9993629999999999
100
AcDbArc
 50
179.9923860000007
 51
227.7102229999981
  0
ELLIPSE
  5
10B0
330
1F
100
AcDbEntity
  8
0
 62
     7
370
    70
100
AcDbEllipse
 10
83.5287877564982
 20
127.156109237387
 30
0.0
 11
0.5
 21
0.0
 31
0.0
210
0.0
220
0.0
230
1.0
 40
0.070279
 41
0.0
 42
0.36790458908381
  0
LINE
  5
10B1
330
1F
100
AcDbEntity
  8
0
 62
     7
 48
0.064277
370
    70
100
AcDbLine
 10
84.02878775649821
 20
127.156108237387
 30
0.0
 11
84.02878775649821
 21
129.727201237387
 31
0.0
  0
LINE
  5
10B2
330
1F
100
AcDbEntity
  8
0
 62
     7
 48
0.003804
370
    70
100
AcDbLine
 10
84.02878775649821
 20
126.9268782373869
 30
0.0
 11
84.02878775649821
 21
126.7747002373869
 31
0.0
  0
LINE
  5
10B3
330
1F
100
AcDbEntity
  8
0
 62
     7
 48
0.003192
370
    70
100
AcDbLine
 10
84.02878775649821
 20
127.067761237387
 30
0.0
 11
84.02878775649821
 21
127.1954542373869
 31
0.0
  0
LINE
  5
10B4
330
1F
100
AcDbEntity
  8
0
 62
     7
 48
0.004501
370
    70
100
AcDbLine
 10
84.02878775649821
 20
127.473554237387
 30
0.0
 11
84.02878775649821
 21
127.293511237387
 31
0.0
  0
LINE
  5
10B5
330
1F
100
AcDbEntity
  8
0
 62
     7
 48
0.002099
370
    70
100
AcDbLine
 10
84.02878775649821
 20
127.606446237387
 30
0.0
 11
84.02878775649821
 21
127.690401237387
 31
0.0
  0
LINE
  5
10B6
330
1F
100
AcDbEntity
  8
0
 62
     7
 48
0.004891
370
    70
100
AcDbLine
 10
84.02878775649821
 20
127.9751272373869
 30
0.0
 11
84.02878775649821
 21
127.779491237387
 31
0.0
  0
LINE
  5
10B7
330
1F
100
AcDbEntity
  8
0
 62
     7
 48
0.000862
370
    70
100
AcDbLine
 10
84.02878775649821
 20
128.090973237387
 30
0.0
 11
84.02878775649821
 21
128.125469237387
 31
0.0
  0
LINE
  5
10B8
330
1F
100
AcDbEntity
  8
0
 62
     7
 48
0.004947
370
    70
100
AcDbLine
 10
84.02878775649821
 20
128.3974182373869
 30
0.0
 11
84.02878775649821
 21
128.199520237387
 31
0.0
  0
LINE
  5
10B9
330
1F
100
AcDbEntity
  8
0
 62
     7
 48
0.004667
370
    70
100
AcDbLine
 10
84.02878775649821
 20
128.711648237387
 30
0.0
 11
84.02878775649821
 21
128.524974237387
 31
0.0
  0
LINE
  5
10BA
330
1F
100
AcDbEntity
  8
0
 62
     7
 48
0.002974
370
    70
100
AcDbLine
 10
84.02878775649821
 20
128.896402237387
 30
0.0
 11
84.02878775649821
 21
128.777446237387
 31
0.0
  0
LINE
  5
10BB
330
1F
100
AcDbEntity
  8
0
 62
     7
 48
0.003522
370
    70
100
AcDbLine
 10
84.02878775649821
 20
127.067761237387
 30
0.0
 11
84.02878775649821
 21
126.9268782373869
 31
0.0
  0
LINE
  5
10BC
330
1F
100
AcDbEntity
  8
0
 62
     7
 48
0.003322
370
    70
100
AcDbLine
 10
84.02878775649821
 20
127.606446237387
 30
0.0
 11
84.02878775649821
 21
127.473554237387
 31
0.0
  0
LINE
  5
10BD
330
1F
100
AcDbEntity
  8
0
 62
     7
 48
0.002896
370
    70
100
AcDbLine
 10
84.02878775649821
 20
128.090973237387
 30
0.0
 11
84.02878775649821
 21
127.9751272373869
 31
0.0
  0
LINE
  5
10BE
330
1F
100
AcDbEntity
  8
0
 62
     7
 48
0.002282
370
    70
100
AcDbLine
 10
84.02878775649821
 20
128.4887032373869
 30
0.0
 11
84.02878775649821
 21
128.3974182373869
 31
0.0
  0
LINE
  5
10BF
330
1F
100
AcDbEntity
  8
0
 62
     7
 48
0.001645
370
    70
100
AcDbLine
 10
84.02878775649821
 20
128.777446237387
 30
0.0
 11
84.02878775649821
 21
128.711648237387
 31
0.0
  0
LINE
  5
10C0
330
1F
100
AcDbEntity
  8
0
 62
     7
 48
0.001066
370
    70
100
AcDbLine
 10
84.02878775649821
 20
128.939044237387
 30
0.0
 11
84.02878775649821
 21
128.896402237387
 31
0.0
  0
LINE
  5
10C1
330
1F
100
AcDbEntity
  8
0
 62
     7
 48
0.000585
370
    70
100
AcDbLine
 10
84.02878775649821
 20
128.962485237387
 30
0.0
 11
84.02878775649821
 21
128.939090237387
 31
0.0
  0
LINE
  5
10C2
330
1F
100
AcDbEntity
  8
0
 62
     7
 48
0.002451
370
    70
100
AcDbLine
 10
84.02878775649821
 20
127.293511237387
 30
0.0
 11
84.02878775649821
 21
127.1954542373869
 31
0.0
  0
LINE
  5
10C3
330
1F
100
AcDbEntity
  8
0
 62
     7
 48
0.002227
370
    70
100
AcDbLine
 10
84.02878775649821
 20
127.779491237387
 30
0.0
 11
84.02878775649821
 21
127.690401237387
 31
0.0
  0
LINE
  5
10C4
330
1F
100
AcDbEntity
  8
0
 62
     7
 48
0.001851
370
    70
100
AcDbLine
 10
84.02878775649821
 20
128.199520237387
 30
0.0
 11
84.02878775649821
 21
128.125469237387
 31
0.0
  0
LINE
  5
10C5
330
1F
100
AcDbEntity
  8
0
 62
     7
 48
0.000895
370
    70
100
AcDbLine
 10
84.02878775649821
 20
128.524974237387
 30
0.0
 11
84.02878775649821
 21
128.489170237387
 31
0.0
  0
LINE
  5
10C6
330
1F
100
AcDbEntity
  8
0
 62
     7
 48
0.000249
370
    70
100
AcDbLine
 10
84.02878775649821
 20
125.025062237387
 30
0.0
 11
84.02878775649821
 21
125.015089237387
 31
0.0
  0
ARC
  5
10C7
330
1F
100
AcDbEntity
  8
0
 62
     7
370
    70
100
AcDbCircle
 10
38.02878775649821
 20
135.9869962373869
 30
0.0
 40
8.0
100
AcDbArc
 50
89.99999999999348
 51
180.0
  0
LINE
  5
10C8
330
1F
100
AcDbEntity
  8
0
 62
     7
 48
0.4125
370
    70
100
AcDbLine
 10
38.02878775649821
 20
143.9869962373869
 30
0.0
 11
80.52878775649821
 21
144.003034237387
 31
0.0
  0
LINE
  5
10C9
330
1F
100
AcDbEntity
  8
0
 62
     7
 48
0.4125
370
    70
100
AcDbLine
 10
80.52878775649821
 20
143.9869962373869
 30
0.0
 11
97.02878775649832
 21
143.9869962373869
 31
0.0
  0
ARC
  5
10CA
330
1F
100
AcDbEntity
  8
0
 62
     7
370
    70
100
AcDbCircle
 10
97.02878775649832
 20
135.9869962373869
 30
0.0
 40
8.0
100
AcDbArc
 50
0.0
 51
89.99999999999348
  0
CIRCLE
  5
1146
330
1F
100
AcDbEntity
  8
0
 62
     7
370
    70
100
AcDbCircle
 10
-150.3592862773455
 20
126.8037212373869
 30
0.0
 40
2.1
  0
LINE
  5
1147
330
1F
100
AcDbEntity
  8
0
 62
     7
 48
0.154383
370
    70
100
AcDbLine
 10
-156.9091537773455
 20
110.672754737387
 30
0.0
 11
-157.1261522773455
 21
107.592723737387
 31
0.0
  0
LINE
  5
1148
330
1F
100
AcDbEntity
  8
0
 62
     7
 48
0.055837
370
    70
100
AcDbLine
 10
-157.2406542773455
 20
121.3841412373869
 30
0.0
 11
-156.1408487773455
 21
121.577893737387
 31
0.0
  0
LINE
  5
1149
330
1F
100
AcDbEntity
  8
0
 62
     7
 48
0.25872
370
    70
100
AcDbLine
 10
-156.2276287773455
 20
102.496943237387
 30
0.0
 11
-157.1261522773455
 21
107.592723737387
 31
0.0
  0
LINE
  5
114A
330
1F
100
AcDbEntity
  8
0
 62
     7
 48
0.046992
370
    70
100
AcDbLine
 10
-138.2473257773455
 20
125.478923237387
 30
0.0
 11
-138.0990067773455
 21
124.5508672373869
 31
0.0
  0
LINE
  5
114B
330
1F
100
AcDbEntity
  8
0
 62
     7
 48
0.284875
370
    70
100
AcDbLine
 10
-156.8302912773455
 20
131.2475547373869
 30
0.0
 11
-151.2027112773455
 21
132.137447237387
 31
0.0
  0
LINE
  5
114C
330
1F
100
AcDbEntity
  8
0
 62
     7
 48
0.259026
370
    70
100
AcDbLine
 10
-150.8062482773454
 20
71.75076823738702
 30
0.0
 11
-149.0070732773455
 21
61.547136237387
 31
0.0
  0
LINE
  5
114D
330
1F
100
AcDbEntity
  8
0
 62
     7
 48
0.00401
370
    70
100
AcDbLine
 10
-150.8062482773454
 20
71.75076823738702
 30
0.0
 11
-150.8341012773455
 21
71.90872923738702
 31
0.0
  0
LINE
  5
114E
330
1F
100
AcDbEntity
  8
0
 62
     7
370
    70
100
AcDbLine
 10
-156.2276282773455
 20
102.496943237387
 30
0.0
 11
-150.8341012773455
 21
71.90872923738702
 31
0.0
  0
LINE
  5
114F
330
1F
100
AcDbEntity
  8
0
 62
     7
 48
0.037912
370
    70
100
AcDbLine
 10
-158.5755292773455
 20
130.876593237387
 30
0.0
 11
-160.0588882773455
 21
130.561295237387
 31
0.0
  0
LINE
  5
1150
330
1F
100
AcDbEntity
  8
0
 62
     7
 48
0.043885
370
    70
100
AcDbLine
 10
-156.8302912773455
 20
131.2475552373869
 30
0.0
 11
-158.5473282773454
 21
130.8825872373869
 31
0.0
  0
ARC
  5
1151
330
1F
100
AcDbEntity
  8
0
 62
     7
370
    70
100
AcDbCircle
 10
-157.9105212773455
 20
128.8611512373869
 30
0.0
 40
0.5000270000000003
100
AcDbArc
 50
100.011645999998
 51
168.0042080000003
  0
LINE
  5
1152
330
1F
100
AcDbEntity
  8
0
 62
     7
 48
0.188184
370
    70
100
AcDbLine
 10
-159.9644312773454
 20
121.6021732373869
 30
0.0
 11
-158.3996312773455
 21
128.9650772373869
 31
0.0
  0
ARC
  5
1153
330
1F
100
AcDbEntity
  8
0
 62
     7
370
    70
100
AcDbCircle
 10
-159.4753342773454
 20
121.4981642373869
 30
0.0
 40
0.5000210000000001
100
AcDbArc
 50
167.9945430000003
 51
279.9807399999977
  0
LINE
  5
1154
330
1F
100
AcDbEntity
  8
0
 62
     7
 48
0.025555
370
    70
100
AcDbLine
 10
-156.8481312773455
 20
130.2255112373869
 30
0.0
 11
-156.8302912773455
 21
131.2475552373869
 31
0.0
  0
ARC
  5
1155
330
1F
100
AcDbEntity
  8
0
 62
     7
370
    70
100
AcDbCircle
 10
-112.8072752773455
 20
97.88522223738702
 30
0.0
 40
52.878716
100
AcDbArc
 50
178.5256290000003
 51
201.4743889999993
  0
LINE
  5
1156
330
1F
100
AcDbEntity
  8
0
 62
     7
 48
0.049034
370
    70
100
AcDbLine
 10
-165.7351882773455
 20
99.72229623738696
 30
0.0
 11
-167.6667372773455
 21
99.38171223738695
 31
0.0
  0
LINE
  5
1157
330
1F
100
AcDbEntity
  8
0
 62
     7
 48
0.000096
370
    70
100
AcDbLine
 10
-165.6684852773454
 20
99.24576423738695
 30
0.0
 11
-165.6723412773455
 21
99.24586423738702
 31
0.0
  0
LINE
  5
1158
330
1F
100
AcDbEntity
  8
0
 62
     7
 48
0.000096
370
    70
100
AcDbLine
 10
-162.0152312773454
 20
78.52713223738702
 30
0.0
 11
-162.0188212773455
 21
78.52572023738702
 31
0.0
  0
LINE
  5
1159
330
1F
100
AcDbEntity
  8
0
 62
     7
 48
0.049034
370
    70
100
AcDbLine
 10
-163.8464772773455
 20
77.715941237387
 30
0.0
 11
-161.9149282773454
 21
78.05652523738699
 31
0.0
  0
LINE
  5
115A
330
1F
100
AcDbEntity
  8
0
 62
     7
 48
0.054527
370
    70
100
AcDbLine
 10
-159.3886752773454
 20
121.005724237387
 30
0.0
 11
-157.2406542773455
 21
121.3841412373869
 31
0.0
  0
LINE
  5
115B
330
1F
100
AcDbEntity
  8
0
 62
     7
 48
0.024758
370
    70
100
AcDbLine
 10
-157.9974502773455
 20
129.3535632373869
 30
0.0
 11
-157.0222112773454
 21
129.525677237387
 31
0.0
  0
LINE
  5
115C
330
1F
100
AcDbEntity
  8
0
 62
     7
 48
0.000857
370
    70
100
AcDbLine
 10
-157.0222112773454
 20
129.525677237387
 30
0.0
 11
-157.0228092773455
 21
129.4914212373869
 31
0.0
  0
LINE
  5
115D
330
1F
100
AcDbEntity
  8
0
 62
     7
 48
0.01266
370
    70
100
AcDbLine
 10
-156.8569692773456
 20
129.719182237387
 30
0.0
 11
-156.8481312773455
 21
130.2255112373869
 31
0.0
  0
ARC
  5
115E
330
1F
100
AcDbEntity
  8
0
 62
     7
370
    70
100
AcDbCircle
 10
-157.0569852773455
 20
129.722678237387
 30
0.0
 40
0.200047
100
AcDbArc
 50
280.0107359999989
 51
358.9984710000007
  0
LINE
  5
115F
330
1F
100
AcDbEntity
  8
0
 62
     7
 48
0.000815
370
    70
100
AcDbLine
 10
-156.8569692773456
 20
129.719182237387
 30
0.0
 11
-156.8575372773454
 21
129.686603237387
 31
0.0
  0
LINE
  5
1160
330
1F
100
AcDbEntity
  8
0
 62
     7
 48
0.112083
370
    70
100
AcDbLine
 10
-153.4352142773455
 20
60.84578723738701
 30
0.0
 11
-149.0070732773455
 21
61.547136237387
 31
0.0
  0
ARC
  5
1161
330
1F
100
AcDbEntity
  8
0
 62
     7
370
    70
100
AcDbCircle
 10
-153.5134312773455
 20
61.339635237387
 30
0.0
 40
0.5000040000000002
100
AcDbArc
 50
217.066347000001
 51
278.9999079999996
  0
ARC
  5
1162
330
1F
100
AcDbEntity
  8
0
 62
     7
370
    70
100
AcDbCircle
 10
-112.8072812773455
 20
97.88522423738696
 30
0.0
 40
54.999994
100
AcDbArc
 50
162.7305499999996
 51
164.1117509999993
  0
ARC
  5
1163
330
1F
100
AcDbEntity
  8
0
 62
     7
370
    70
100
AcDbCircle
 10
-112.8072792773455
 20
97.885220237387
 30
0.0
 40
54.99999599999998
100
AcDbArc
 50
215.8882489999986
 51
217.2654789999996
  0
LINE
  5
1164
330
1F
100
AcDbEntity
  8
0
 62
     7
 48
0.110819
370
    70
100
AcDbLine
 10
-153.9136222773455
 20
61.03988223738703
 30
0.0
 11
-156.5783902773455
 21
64.582227237387
 31
0.0
  0
LINE
  5
1165
330
1F
100
AcDbEntity
  8
0
 62
     7
 48
0.039294
370
    70
100
AcDbLine
 10
-164.8690812773455
 20
115.716141237387
 30
0.0
 11
-165.3278312773455
 21
114.2128392373869
 31
0.0
  0
LINE
  5
1166
330
1F
100
AcDbEntity
  8
0
 62
     7
 48
0.309685
370
    70
100
AcDbLine
 10
-163.5665922773455
 20
100.519214237387
 30
0.0
 11
-165.7176422773455
 21
112.718425237387
 31
0.0
  0
ARC
  5
1167
330
1F
100
AcDbEntity
  8
0
 62
     7
370
    70
100
AcDbCircle
 10
-165.2238152773455
 20
112.8052952373869
 30
0.0
 40
0.5013770000000001
100
AcDbArc
 50
164.1613379999988
 51
189.9769569999987
  0
LINE
  5
1168
330
1F
100
AcDbEntity
  8
0
 62
     7
370
    70
100
AcDbLine
 10
-157.9593522773455
 20
68.718978237387
 30
0.0
 11
-163.5665922773455
 21
100.519214237387
 31
0.0
  0
LINE
  5
1169
330
1F
100
AcDbEntity
  8
0
 62
     7
 48
0.072827
370
    70
100
AcDbLine
 10
-157.4535022773455
 20
65.850160237387
 30
0.0
 11
-157.9593522773455
 21
68.718978237387
 31
0.0
  0
ARC
  5
116A
330
1F
100
AcDbEntity
  8
0
 62
     7
370
    70
100
AcDbCircle
 10
-156.9597452773455
 20
65.93742723738698
 30
0.0
 40
0.5013770000000001
100
AcDbArc
 50
190.0230429999993
 51
215.8386620000013
  0
LINE
  5
116B
330
1F
100
AcDbEntity
  8
0
 62
     7
 48
0.379004
370
    70
100
AcDbLine
 10
-160.4332482773455
 20
130.218136237387
 30
0.0
 11
-164.8580312773455
 21
115.7180902373869
 31
0.0
  0
SPLINE
  5
116C
330
1F
100
AcDbEntity
  8
0
 62
     7
370
    70
100
AcDbSpline
210
0.0
220
0.0
230
1.0
 70
  1064
 71
     3
 72
    27
 73
    23
 74
    21
 42
0.000000001
 43
0.0000000001
 44
0.0000000001
 40
0.0
 40
0.0
 40
0.0
 40
0.0
 40
0.0066070694288149
 40
0.0193994538260252
 40
0.0379541798483825
 40
0.0552400611623527
 40
0.0712536675277226
 40
0.0859917960141483
 40
0.09945147232335
 40
0.1116299521938815
 40
0.1225417607410607
 40
0.1321748766090288
 40
0.1405174910554102
 40
0.1475409805175734
 40
0.1532525385492358
 40
0.1576088280036367
 40
0.1631547095448766
 40
0.1701523931784723
 40
0.2449044904351283
 40
0.4238159656477723
 40
0.6033974459197503
 40
0.7081048599214752
 40
0.7081048599214752
 40
0.7081048599214752
 40
0.7081048599214752
 10
-159.899091590947
 20
130.5952611056925
 30
0.0
 10
-159.9012458206512
 20
130.5948032100385
 30
0.0
 10
-159.9075709970593
 20
130.5934587523039
 30
0.0
 10
-159.919945927025
 20
130.590828379642
 30
0.0
 10
-159.9358026749848
 20
130.5874579233232
 30
0.0
 10
-159.9527096996739
 20
130.5838642232142
 30
0.0
 10
-159.9683723257959
 20
130.5805350282325
 30
0.0
 10
-159.9827874204472
 20
130.5774710023017
 30
0.0
 10
-159.9959520761114
 20
130.5746727701204
 30
0.0
 10
-160.0078691597911
 20
130.5721397003112
 30
0.0
 10
-160.0185386072259
 20
130.5698718777261
 30
0.0
 10
-160.0279573395464
 20
130.5678697306195
 30
0.0
 10
-160.0361083936259
 20
130.5661375649608
 30
0.0
 10
-160.0429805630364
 20
130.5646759039007
 30
0.0
 10
-160.0485535779916
 20
130.5634933485033
 30
0.0
 10
-160.0536435627676
 20
130.5624070137814
 30
0.0
 10
-160.0591564493083
 20
130.5612494901858
 30
0.0
 10
-160.0875822178386
 20
130.5550043734659
 30
0.0
 10
-160.1721688068412
 20
130.5368982994901
 30
0.0
 10
-160.3112047175273
 20
130.479676831161
 30
0.0
 10
-160.4006154405595
 20
130.3435087977196
 30
0.0
 10
-160.4244642591741
 20
130.251883253653
 30
0.0
 10
-160.4332480990442
 20
130.2181363364537
 30
0.0
 11
-159.899091590947
 21
130.5952611056925
 31
0.0
 11
-159.9055542800582
 21
130.5938874187234
 31
0.0
 11
-159.9180671201416
 21
130.5912277323485
 31
0.0
 11
-159.9362163807641
 21
130.587369987331
 31
0.0
 11
-159.9531245238964
 21
130.5837760495714
 31
0.0
 11
-159.9687881942561
 21
130.5804466322522
 31
0.0
 11
-159.9832042589091
 21
130.5773824013201
 31
0.0
 11
-159.9963698085398
 21
130.5745839751071
 31
0.0
 11
-160.0082821588981
 21
130.5720519243772
 31
0.0
 11
-160.018955517556
 21
130.5697832285559
 31
0.0
 11
-160.0283781262741
 21
130.5677803890037
 31
0.0
 11
-160.0365384433535
 21
130.5660459032112
 31
0.0
 11
-160.0434084300122
 21
130.5645855308154
 31
0.0
 11
-160.0489952400301
 21
130.5633983286537
 31
0.0
 11
-160.0532561745819
 21
130.5624918549609
 31
0.0
 11
-160.0586814293295
 21
130.5613414580757
 31
0.0
 11
-160.0655189249088
 21
130.5598527571526
 31
0.0
 11
-160.1382891967488
 21
130.5427541144988
 31
0.0
 11
-160.2995706508398
 21
130.4653098859917
 31
0.0
 11
-160.4026876257839
 21
130.3182847264609
 31
0.0
 11
-160.4332480990442
 21
130.2181363364537
 31
0.0
  0
ARC
  5
116D
330
1F
100
AcDbEntity
  8
0
 62
     7
370
    70
100
AcDbCircle
 10
-161.4610762773455
 20
65.95143223738699
 30
0.0
 40
4.000001
100
AcDbArc
 50
20.80698999999955
 51
66.74152999999981
  0
ARC
  5
116E
330
1F
100
AcDbEntity
  8
0
 62
     7
370
    70
100
AcDbCircle
 10
-169.4488922773456
 20
111.2525892373869
 30
0.0
 40
4.000001
100
AcDbArc
 50
313.2584699999987
 51
359.1858980000002
  0
ARC
  5
116F
330
1F
100
AcDbEntity
  8
0
 62
     7
370
    70
100
AcDbCircle
 10
-159.6841172773455
 20
70.085730237387
 30
0.0
 40
0.5
100
AcDbArc
 50
210.6693149999999
 51
246.7415379999982
  0
ARC
  5
1170
330
1F
100
AcDbEntity
  8
0
 62
     7
370
    70
100
AcDbCircle
 10
-166.3650842773455
 20
107.975375237387
 30
0.0
 40
0.5
100
AcDbArc
 50
133.2584620000001
 51
169.3306840000001
  0
ARC
  5
1171
330
1F
100
AcDbEntity
  8
0
 62
     7
370
    70
100
AcDbCircle
 10
-112.8072762773455
 20
97.88522223738702
 30
0.0
 40
55.0
100
AcDbArc
 50
169.3306799999991
 51
178.3351929999998
  0
ARC
  5
1172
330
1F
100
AcDbEntity
  8
0
 62
     7
370
    70
100
AcDbCircle
 10
-112.8072762773455
 20
97.88522223738702
 30
0.0
 40
55.0
100
AcDbArc
 50
201.6648069999999
 51
210.6693200000008
  0
ARC
  5
1173
330
1F
100
AcDbEntity
  8
0
 62
     7
370
    70
100
AcDbCircle
 10
-167.6840752773455
 20
99.48022323738696
 30
0.0
 40
0.10002
100
AcDbArc
 50
178.3531399999992
 51
279.9820380000005
  0
SPLINE
  5
1174
330
1F
100
AcDbEntity
  8
0
 62
     7
370
    70
100
AcDbSpline
210
0.0
220
0.0
230
1.0
 70
  1064
 71
     3
 72
    24
 73
    20
 74
    18
 42
0.000000001
 43
0.0000000001
 44
0.0000000001
 40
0.0
 40
0.0
 40
0.0
 40
0.0
 40
0.0069999871944267
 40
0.0139999743886837
 40
0.021517662659016
 40
0.0337372352844729
 40
0.0459506477389058
 40
0.0511628759397923
 40
0.0696060753141477
 40
0.0880589149938609
 40
0.1012930762165257
 40
0.1400137224507696
 40
0.1787539015037966
 40
0.2042458292163436
 40
0.2790726602086201
 40
0.3539446484151681
 40
0.4033629149674184
 40
0.4526898125934757
 40
0.5020167102194196
 40
0.5020167102194196
 40
0.5020167102194196
 40
0.5020167102194196
 10
-165.7445309999833
 20
99.73650513250715
 30
0.0
 10
-165.7430353939673
 20
99.73473832429252
 30
0.0
 10
-165.7400441819353
 20
99.73120470786334
 30
0.0
 10
-165.7341317498801
 20
99.72647203199208
 30
0.0
 10
-165.7335627608383
 20
99.71699163941222
 30
0.0
 10
-165.7274830101033
 20
99.70803354222505
 30
0.0
 10
-165.7242877406664
 20
99.698645830544
 30
0.0
 10
-165.720005398103
 20
99.6874879574217
 30
0.0
 10
-165.7151677805829
 20
99.6743009539584
 30
0.0
 10
-165.7105094443495
 20
99.65824441419098
 30
0.0
 10
-165.7044972731651
 20
99.63556104748404
 30
0.0
 10
-165.6970727441584
 20
99.6062348686798
 30
0.0
 10
-165.6912795513099
 20
99.57238458113844
 30
0.0
 10
-165.6844487758971
 20
99.52654818596686
 30
0.0
 10
-165.67620398748
 20
99.46865978123131
 30
0.0
 10
-165.673701893219
 20
99.40230371089505
 30
0.0
 10
-165.6691639535906
 20
99.34454300077957
 30
0.0
 10
-165.6715319531015
 20
99.29517524868726
 30
0.0
 10
-165.67207153979
 20
99.26230130213951
 30
0.0
 10
-165.6723413331343
 20
99.24586432886568
 30
0.0
 11
-165.7445309999833
 21
99.73650513250715
 31
0.0
 11
-165.7398302878173
 21
99.73131831017989
 31
0.0
 11
-165.7351295756516
 21
99.7261314878526
 31
0.0
 11
-165.7331788925902
 21
99.71887129002308
 31
0.0
 11
-165.727986033813
 21
99.70780999837748
 31
0.0
 11
-165.7234337836154
 21
99.69647666427313
 31
0.0
 11
-165.7215902019807
 21
99.69160136637718
 31
0.0
 11
-165.7153713458737
 21
99.67423826089797
 31
0.0
 11
-165.7101054585891
 21
99.6565527379102
 31
0.0
 11
-165.7066854806463
 21
99.64376810752295
 31
0.0
 11
-165.6975696917811
 21
99.60613579643045
 31
0.0
 11
-165.6907011043954
 21
99.5680093754027
 31
0.0
 11
-165.6868855193783
 21
99.54280462010773
 31
0.0
 11
-165.6774963303725
 21
99.46856919887125
 31
0.0
 11
-165.6727699250858
 21
99.39384654025239
 31
0.0
 11
-165.6702035203063
 21
99.34449495835742
 31
0.0
 11
-165.6712724267203
 21
99.29517964361149
 31
0.0
 11
-165.6723413331343
 21
99.24586432886568
 31
0.0
  0
ARC
  5
1175
330
1F
100
AcDbEntity
  8
0
 62
     7
370
    70
100
AcDbCircle
 10
-112.8072752773455
 20
97.88522223738702
 30
0.0
 40
52.882573
100
AcDbArc
 50
178.5256459999999
 51
201.4743540000003
  0
SPLINE
  5
1176
330
1F
100
AcDbEntity
  8
0
 62
     7
370
    70
100
AcDbSpline
210
0.0
220
0.0
230
1.0
 70
  1064
 71
     3
 72
    24
 73
    20
 74
    18
 42
0.000000001
 43
0.0000000001
 44
0.0000000001
 40
0.0
 40
0.0
 40
0.0
 40
0.0
 40
0.0070007751869128
 40
0.0140015503735341
 40
0.0215196928361878
 40
0.0337400375949702
 40
0.0459542215491342
 40
0.0511664326991224
 40
0.0696110815179417
 40
0.0880653733126631
 40
0.1013010026443804
 40
0.1400210742534332
 40
0.1787606685635979
 40
0.2042505510919764
 40
0.2790751641270119
 40
0.3539449353793712
 40
0.4033630257050732
 40
0.4526897513066341
 40
0.5020164769083656
 40
0.5020164769083656
 40
0.5020164769083656
 40
0.5020164769083656
 10
-161.918847893708
 20
78.03997800274877
 30
0.0
 10
-161.9180468073943
 20
78.04215009281165
 30
0.0
 10
-161.9164446347669
 20
78.04649427293736
 30
0.0
 10
-161.9125079688672
 20
78.05296455070489
 30
0.0
 10
-161.9152142992214
 20
78.06206852088047
 30
0.0
 10
-161.9125658611267
 20
78.07256644817286
 30
0.0
 10
-161.9127740010144
 20
78.08248137129684
 30
0.0
 10
-161.9125662841201
 20
78.09443172582248
 30
0.0
 10
-161.9125307259633
 20
78.10847898105558
 30
0.0
 10
-161.9136452445434
 20
78.12516188150103
 30
0.0
 10
-161.9157541263105
 20
78.14853431476532
 30
0.0
 10
-161.9188079957463
 20
78.17863129826929
 30
0.0
 10
-161.9249417651218
 20
78.21242043987607
 30
0.0
 10
-161.934199740946
 20
78.25782721151043
 30
0.0
 10
-161.9462509135723
 20
78.31504223981879
 30
0.0
 10
-161.9665942421345
 20
78.37825088411341
 30
0.0
 10
-161.9820852372608
 20
78.43407938798506
 30
0.0
 10
-162.0011950564231
 20
78.4796598612281
 30
0.0
 10
-162.0129456010185
 20
78.51036661466304
 30
0.0
 10
-162.0188208733163
 20
78.52571999138053
 30
0.0
 11
-161.918847893708
 21
78.03997800274877
 31
0.0
 11
-161.9162048408808
 21
78.04646068159091
 31
0.0
 11
-161.9135617880539
 21
78.05294336043286
 31
0.0
 11
-161.9142112033907
 21
78.06043340220906
 31
0.0
 11
-161.913114835943
 21
78.07260446643709
 31
0.0
 11
-161.9127134825863
 21
78.08481205445231
 31
0.0
 11
-161.912648588834
 21
78.09002386161231
 31
0.0
 11
-161.9127434829687
 21
78.10846826632356
 31
0.0
 11
-161.9138442322993
 21
78.12688970048478
 31
0.0
 11
-161.9150033740961
 21
78.14007447481358
 31
0.0
 11
-161.9193088032179
 21
78.1785544335647
 31
0.0
 11
-161.9258946969884
 21
78.21673010868066
 31
0.0
 11
-161.9309294563518
 21
78.24171781184569
 31
0.0
 11
-161.9474962017409
 21
78.314685377675
 31
0.0
 11
-161.9686108704359
 21
78.38651610517572
 31
0.0
 11
-161.983078502557
 21
78.43376899156637
 31
0.0
 11
-162.0009496879366
 21
78.47974449147338
 31
0.0
 11
-162.0188208733163
 21
78.52571999138053
 31
0.0
  0
ARC
  5
1177
330
1F
100
AcDbEntity
  8
0
 62
     7
370
    70
100
AcDbCircle
 10
-163.8290772773455
 20
77.617441237387
 30
0.0
 40
0.10002
100
AcDbArc
 50
100.017962
 51
201.6468599999989
  0
ARC
  5
1178
330
1F
100
AcDbEntity
  8
0
 62
     7
370
    70
100
AcDbCircle
 10
-167.5891942773455
 20
99.293816237387
 30
0.0
 40
0.10002
100
AcDbArc
 50
358.5448290000006
 51
99.98210499999949
  0
ARC
  5
1179
330
1F
100
AcDbEntity
  8
0
 62
     7
370
    70
100
AcDbCircle
 10
-163.8036732773455
 20
77.825057237387
 30
0.0
 40
0.10002
100
AcDbArc
 50
280.017894999999
 51
21.45517099999888
  0
ARC
  5
117A
330
1F
100
AcDbEntity
  8
0
 62
     7
370
    70
100
AcDbCircle
 10
-112.8072722773456
 20
97.88522223738702
 30
0.0
 40
54.700004
100
AcDbArc
 50
190.0000000000002
 51
201.4729389999997
  0
ARC
  5
117B
330
1F
100
AcDbEntity
  8
0
 62
     7
370
    70
100
AcDbCircle
 10
-112.8072722773456
 20
97.88522323738702
 30
0.0
 40
54.700004
100
AcDbArc
 50
178.527061
 51
190.0000000000002
  0
LINE
  5
117C
330
1F
100
AcDbEntity
  8
0
 62
     7
 48
0.133796
370
    70
100
AcDbLine
 10
-138.2473242774886
 20
64.21932420171474
 30
0.0
 11
-138.2473242774886
 21
58.86747320171474
 31
0.0
  0
ARC
  5
117D
330
1F
100
AcDbEntity
  8
0
 62
     7
370
    70
100
AcDbCircle
 10
-137.7473542774886
 20
58.86746120171475
 30
0.0
 40
0.499969
100
AcDbArc
 50
179.9985629999987
 51
278.0014369999998
  0
SPLINE
  5
117E
330
1F
100
AcDbEntity
  8
0
 62
     7
370
    70
100
AcDbSpline
210
0.0
220
0.0
230
1.0
 70
  1064
 71
     3
 72
    18
 73
    14
 74
    12
 42
0.000000001
 43
0.0000000001
 44
0.0000000001
 40
0.0
 40
0.0
 40
0.0
 40
0.0
 40
0.0006958083394352
 40
0.0021936459453146
 40
0.0047860347454499
 40
0.042728131588641
 40
0.2005791990417439
 40
0.4393950391522393
 40
1.100705372797319
 40
2.08153505813437
 40
2.645048418754631
 40
3.263469221642639
 40
3.920701009549644
 40
3.920701009549644
 40
3.920701009549644
 40
3.920701009549644
 10
-138.2473256065302
 20
64.2193240763913
 30
0.0
 10
-138.2470818232725
 20
64.21935641809525
 30
0.0
 10
-138.2463132579587
 20
64.21945838043703
 30
0.0
 10
-138.2458731363908
 20
64.22129775201764
 30
0.0
 10
-138.2422527930714
 20
64.23408336038021
 30
0.0
 10
-138.2315856581854
 20
64.30143268622214
 30
0.0
 10
-138.2328210798404
 20
64.44479166407525
 30
0.0
 10
-138.220182120193
 20
64.79839778414259
 30
0.0
 10
-138.2133067039633
 20
65.42451642488963
 30
0.0
 10
-138.2061946234913
 20
66.16005188880511
 30
0.0
 10
-138.2010885364516
 20
66.88089350114859
 30
0.0
 10
-138.1978402754851
 20
67.49395517361536
 30
0.0
 10
-138.1963391638398
 20
67.91916801680433
 30
0.0
 10
-138.1955657727947
 20
68.13824286460121
 30
0.0
 11
-138.2473256065302
 21
64.2193240763913
 31
0.0
 11
-138.2466512870544
 21
64.21949566453132
 31
0.0
 11
-138.245976987067
 21
64.22083313865091
 31
0.0
 11
-138.2453029125694
 21
64.2233363572316
 31
0.0
 11
-138.2384493812722
 21
64.26065433978179
 31
0.0
 11
-138.2316619489733
 21
64.41835941344422
 31
0.0
 11
-138.2257547158246
 21
64.6571021831446
 31
0.0
 11
-138.2145893657246
 21
65.318318253989
 31
0.0
 11
-138.2053869448266
 21
66.29910476852109
 31
0.0
 11
-138.2013779574739
 21
66.86260386844756
 31
0.0
 11
-138.1980855315747
 21
67.48101590695938
 31
0.0
 11
-138.1955657727947
 21
68.13824286460121
 31
0.0
  0
SPLINE
  5
117F
330
1F
100
AcDbEntity
  8
0
 62
     7
370
    70
100
AcDbSpline
210
0.0
220
0.0
230
1.0
 70
  1064
 71
     3
 72
    27
 73
    23
 74
    21
 42
0.000000001
 43
0.0000000001
 44
0.0000000001
 40
0.0
 40
0.0
 40
0.0
 40
0.0
 40
0.2490333265578412
 40
0.5509082258251745
 40
0.904647430600977
 40
2.211589959486293
 40
4.028062963860697
 40
5.506371436502398
 40
8.873850286535937
 40
12.90259922762422
 40
15.0621462075668
 40
19.57733664764664
 40
24.3192563441313
 40
26.7100379030459
 40
31.65815347163965
 40
36.33122175858657
 40
38.64249799965485
 40
41.16303494808902
 40
43.380152037586
 40
43.7113586654938
 40
44.03500538898759
 40
44.3508633044339
 40
44.3508633044339
 40
44.3508633044339
 40
44.3508633044339
 10
-138.1955657960338
 20
68.13824221935779
 30
0.0
 10
-138.1924939464439
 20
68.22119679829869
 30
0.0
 10
-138.185698441477
 20
68.40470781885196
 30
0.0
 10
-138.1772314325244
 20
68.70614159781914
 30
0.0
 10
-138.1616965713133
 20
69.36014170444983
 30
0.0
 10
-138.1366035250759
 20
70.51893207922805
 30
0.0
 10
-138.117699435075
 20
72.05273846193392
 30
0.0
 10
-138.0935892704562
 20
74.27335695683989
 30
0.0
 10
-138.0677880546552
 20
77.23143229545574
 30
0.0
 10
-138.0523583474058
 20
80.41665718556492
 30
0.0
 10
-138.0376370074163
 20
83.98445487593075
 30
0.0
 10
-138.0256946230814
 20
87.78999182103689
 30
0.0
 10
-138.0232740589945
 20
91.67262450180411
 30
0.0
 10
-138.0237115141555
 20
95.69956279824465
 30
0.0
 10
-138.0268073309981
 20
99.70355344819928
 30
0.0
 10
-138.0407489739328
 20
103.6810195218622
 30
0.0
 10
-138.0549845382561
 20
106.8492808401444
 30
0.0
 10
-138.0685822395946
 20
109.1988878408044
 30
0.0
 10
-138.0834414669625
 20
110.8884438893629
 30
0.0
 10
-138.0916190485607
 20
111.8457324126316
 30
0.0
 10
-138.0945414162945
 20
112.169289659848
 30
0.0
 10
-138.0965756459911
 20
112.3824481681655
 30
0.0
 10
-138.0975803729507
 20
112.4877293467484
 30
0.0
 11
-138.1955657960338
 21
68.13824221935779
 31
0.0
 11
-138.1866852247771
 21
68.38711715419579
 31
0.0
 11
-138.177917542841
 21
68.68886470192589
 31
0.0
 11
-138.1692944460046
 21
69.0424987885131
 31
0.0
 11
-138.1419805173193
 21
70.34915586789885
 31
0.0
 11
-138.1168000799464
 21
72.16545433489009
 31
0.0
 11
-138.1007469376234
 21
73.64367564339088
 31
0.0
 11
-138.0716924512864
 21
77.0110291505604
 31
0.0
 11
-138.0499678464951
 21
81.03971951740005
 31
0.0
 11
-138.0411070099794
 21
83.1992483188184
 31
0.0
 11
-138.0277778451083
 21
87.71441908453173
 31
0.0
 11
-138.0235547440911
 21
92.45633690049258
 31
0.0
 11
-138.0237914378478
 21
94.84711844769051
 31
0.0
 11
-138.0291956317891
 21
99.79523106512838
 31
0.0
 11
-138.0445381456167
 21
104.4682741659074
 31
0.0
 11
-138.0551480039678
 21
106.7795260546968
 31
0.0
 11
-138.0705117877121
 21
109.3000161781789
 31
0.0
 11
-138.0888077442985
 21
111.5170577760097
 31
0.0
 11
-138.0916679072359
 21
111.8482520540974
 31
0.0
 11
-138.0945927759102
 21
112.1718855609713
 31
0.0
 11
-138.0975803729507
 21
112.4877293467484
 31
0.0
  0
LINE
  5
1180
330
1F
100
AcDbEntity
  8
0
 62
     7
 48
0.009381
370
    70
100
AcDbLine
 10
-138.0990072773455
 20
112.862968237387
 30
0.0
 11
-138.0975802773455
 21
112.4877292373869
 31
0.0
  0
LINE
  5
1181
330
1F
100
AcDbEntity
  8
0
 62
     7
 48
0.292197
370
    70
100
AcDbLine
 10
-138.0990072773455
 20
124.5508672373869
 30
0.0
 11
-138.0990072773455
 21
112.862968237387
 31
0.0
  0
ARC
  5
1183
330
1F
100
AcDbEntity
  8
0
 62
     7
370
    70
100
AcDbCircle
 10
-138.7473282773455
 20
64.21931223738702
 30
0.0
 40
0.5000040000000002
100
AcDbArc
 50
0.0013709999993688
 51
100.0018109999986
  0
LINE
  5
1184
330
1F
100
AcDbEntity
  8
0
 62
     7
 48
0.088855
370
    70
100
AcDbLine
 10
-149.8586632773454
 20
66.37684423738703
 30
0.0
 11
-149.2414812773455
 21
62.87663023738701
 31
0.0
  0
LINE
  5
1185
330
1F
100
AcDbEntity
  8
0
 62
     7
 48
0.007061
370
    70
100
AcDbLine
 10
-149.9077102773455
 20
66.65500423738703
 30
0.0
 11
-149.8586632773454
 21
66.37684423738703
 31
0.0
  0
LINE
  5
1186
330
1F
100
AcDbEntity
  8
0
 62
     7
 48
0.2824849999999999
370
    70
100
AcDbLine
 10
-138.7799862773455
 20
68.61712223738701
 30
0.0
 11
-149.9077102773455
 21
66.65500423738703
 31
0.0
  0
ARC
  5
1187
330
1F
100
AcDbEntity
  8
0
 62
     7
370
    70
100
AcDbCircle
 10
-145.3805702773455
 20
104.326791237387
 30
0.0
 40
0.5
100
AcDbArc
 50
10.00000000000021
 51
99.99999999999857
  0
LINE
  5
1188
330
1F
100
AcDbEntity
  8
0
 62
     7
370
    70
100
AcDbLine
 10
-144.8881662773455
 20
104.4136152373869
 30
0.0
 11
-140.7206102773455
 21
80.77822923738699
 31
0.0
  0
ARC
  5
1189
330
1F
100
AcDbEntity
  8
0
 62
     7
370
    70
100
AcDbCircle
 10
-141.2130142773455
 20
80.69140523738701
 30
0.0
 40
0.5
100
AcDbArc
 50
279.9999999999986
 51
10.00000000000021
  0
LINE
  5
118A
330
1F
100
AcDbEntity
  8
0
 62
     7
 48
0.2
370
    70
100
AcDbLine
 10
-141.1261902773455
 20
80.19900123738699
 30
0.0
 11
-149.0046522773455
 21
78.809815237387
 31
0.0
  0
ARC
  5
118B
330
1F
100
AcDbEntity
  8
0
 62
     7
370
    70
100
AcDbCircle
 10
-149.0914762773455
 20
79.30221923738702
 30
0.0
 40
0.5
100
AcDbArc
 50
190.0000000000002
 51
279.9999999999986
  0
LINE
  5
118C
330
1F
100
AcDbEntity
  8
0
 62
     7
370
    70
100
AcDbLine
 10
-149.5838802773455
 20
79.21539523738701
 30
0.0
 11
-153.7514362773455
 21
102.850781237387
 31
0.0
  0
ARC
  5
118D
330
1F
100
AcDbEntity
  8
0
 62
     7
370
    70
100
AcDbCircle
 10
-153.2590322773455
 20
102.9376052373869
 30
0.0
 40
0.5
100
AcDbArc
 50
99.99999999999857
 51
190.0000000000002
  0
LINE
  5
118E
330
1F
100
AcDbEntity
  8
0
 62
     7
 48
0.2
370
    70
100
AcDbLine
 10
-153.3458562773455
 20
103.430009237387
 30
0.0
 11
-145.4673942773455
 21
104.819195237387
 31
0.0
  0
SPLINE
  5
118F
330
1F
100
AcDbEntity
  8
0
 62
     7
370
    70
100
AcDbSpline
210
0.0
220
0.0
230
1.0
 70
  1064
 71
     3
 72
    18
 73
    14
 74
    12
 42
0.000000001
 43
0.0000000001
 44
0.0000000001
 40
0.0
 40
0.0
 40
0.0
 40
0.0
 40
0.1237498919016655
 40
0.2468580419681253
 40
0.3687951862564991
 40
0.5934640570490992
 40
0.8007562048560036
 40
0.8966302117956551
 40
1.031175743905159
 40
1.141846346313121
 40
1.184800514230669
 40
1.230914877879524
 40
1.280347521986267
 40
1.280347521986267
 40
1.280347521986267
 40
1.280347521986267
 10
-156.9091535404668
 20
110.6727541971152
 30
0.0
 10
-156.9124858021155
 20
110.6316347500171
 30
0.0
 10
-156.9191330449801
 20
110.549609092932
 30
0.0
 10
-156.9213369639458
 20
110.426557674568
 30
0.0
 10
-156.913462704872
 20
110.2702354143167
 30
0.0
 10
-156.9005559786852
 20
110.085402873812
 30
0.0
 10
-156.8459331698239
 20
109.9156464085988
 30
0.0
 10
-156.7897494577969
 20
109.7833833138354
 30
0.0
 10
-156.7275467358026
 20
109.6770377899014
 30
0.0
 10
-156.6249988604019
 20
109.6596220406591
 30
0.0
 10
-156.5585604040934
 20
109.664740994538
 30
0.0
 10
-156.5153262174246
 20
109.6831918171967
 30
0.0
 10
-156.4892014440977
 20
109.7014028638415
 30
0.0
 10
-156.4756854099218
 20
109.7108246155923
 30
0.0
 11
-156.9091535404668
 21
110.6727541971152
 31
0.0
 11
-156.9178505890019
 21
110.5493102945017
 31
0.0
 11
-156.9199375372487
 21
110.4262198348397
 31
0.0
 11
-156.914904440243
 21
110.3043866082891
 31
0.0
 11
-156.8907814188775
 21
110.081016553574
 31
0.0
 11
-156.8308776409018
 21
109.8825686462365
 31
0.0
 11
-156.7925588328796
 21
109.7946852339312
 31
0.0
 11
-156.7103850049129
 21
109.688149032535
 31
0.0
 11
-156.6027536302426
 21
109.6623911323116
 31
0.0
 11
-156.5600355760515
 21
109.6668887302943
 31
0.0
 11
-156.5172241304824
 21
109.6840268358788
 31
0.0
 11
-156.4756854099218
 21
109.7108246155923
 31
0.0
  0
LINE
  5
1190
330
1F
100
AcDbEntity
  8
0
 62
     7
 48
0.000963
370
    70
100
AcDbLine
 10
-156.7727942773454
 20
112.615920237387
 30
0.0
 11
-156.7695472773455
 21
112.654295237387
 31
0.0
  0
LINE
  5
1191
330
1F
100
AcDbEntity
  8
0
 62
     7
 48
0.11767
370
    70
100
AcDbLine
 10
-137.8512817255005
 20
143.0164139129846
 30
0.0
 11
-133.2473257255005
 21
143.9950149129847
 31
0.0
  0
ARC
  5
1192
330
1F
100
AcDbEntity
  8
0
 62
     7
370
    70
100
AcDbCircle
 10
-137.7473257255005
 20
142.5273399129847
 30
0.0
 40
0.5
100
AcDbArc
 50
101.9999999999996
 51
180.0
  0
LINE
  5
1193
330
1F
100
AcDbEntity
  8
0
 62
     7
 48
0.111849
370
    70
100
AcDbLine
 10
-133.2473242774886
 20
58.99501520171476
 30
0.0
 11
-137.6777592774886
 21
58.37235820171475
 31
0.0
  0
LINE
  5
1194
330
1F
100
AcDbEntity
  8
0
 62
     7
 48
0.4262100000000001
370
    70
100
AcDbLine
 10
-138.2473257255005
 20
125.4789229129847
 30
0.0
 11
-138.2473257255005
 21
142.5273399129847
 31
0.0
  0
ELLIPSE
  5
1195
330
1F
100
AcDbEntity
  8
0
 62
     7
370
    70
100
AcDbEllipse
 10
-138.6955462773455
 20
68.13824223738703
 30
0.0
 11
-0.4996819794178009
 21
0.0178300831466913
 31
0.0
210
0.0
220
0.0
230
1.0
 40
0.9713369999999999
 41
3.178311978079575
 42
4.916733224811341
  0
LINE
  5
1196
330
1F
100
AcDbEntity
  8
0
 62
     7
 48
0.0125
370
    70
100
AcDbLine
 10
-138.5989882773455
 20
112.862968237387
 30
0.0
 11
-138.0990072773455
 21
112.862968237387
 31
0.0
  0
ARC
  5
1197
330
1F
100
AcDbEntity
  8
0
 62
     7
370
    70
100
AcDbCircle
 10
-138.6338652773455
 20
125.7960162373869
 30
0.0
 40
0.499961
100
AcDbArc
 50
235.000030000001
 51
320.6366959999992
  0
LINE
  5
1198
330
1F
100
AcDbEntity
  8
0
 62
     7
 48
0.4538120000000001
370
    70
100
AcDbLine
 10
-156.4756852773455
 20
109.7108242373869
 30
0.0
 11
-138.5989882773455
 21
112.862968237387
 31
0.0
  0
LINE
  5
1199
330
1F
100
AcDbEntity
  8
0
 62
     7
 48
0.4137850000000002
370
    70
100
AcDbLine
 10
-156.9091532773455
 20
110.6727542373869
 30
0.0
 11
-155.7459332773455
 21
127.1832292373869
 31
0.0
  0
LINE
  5
119A
330
1F
100
AcDbEntity
  8
0
 62
     7
 48
0.102271
370
    70
100
AcDbLine
 10
-140.7379182773455
 20
124.228148237387
 30
0.0
 11
-144.0889252773455
 21
126.5745482373869
 31
0.0
  0
ARC
  5
119B
330
1F
100
AcDbEntity
  8
0
 62
     7
370
    70
100
AcDbCircle
 10
-141.6033322773456
 20
122.9922082373869
 30
0.0
 40
1.508804
100
AcDbArc
 50
0.0
 51
55.00000000000196
  0
LINE
  5
119C
330
1F
100
AcDbEntity
  8
0
 62
     7
 48
0.188978
370
    70
100
AcDbLine
 10
-140.0945282773455
 20
122.9922082373869
 30
0.0
 11
-140.0945282773455
 21
115.4330712373869
 31
0.0
  0
ARC
  5
119D
330
1F
100
AcDbEntity
  8
0
 62
     7
370
    70
100
AcDbCircle
 10
-141.6033322773456
 20
115.4330712373869
 30
0.0
 40
1.508804
100
AcDbArc
 50
279.9999999999986
 51
0.0
  0
LINE
  5
119E
330
1F
100
AcDbEntity
  8
0
 62
     7
 48
0.294625
370
    70
100
AcDbLine
 10
-141.3413312773455
 20
113.9471892373869
 30
0.0
 11
-152.9472752773455
 21
111.9007482373869
 31
0.0
  0
ARC
  5
119F
330
1F
100
AcDbEntity
  8
0
 62
     7
370
    70
100
AcDbCircle
 10
-153.2092762773455
 20
113.386630237387
 30
0.0
 40
1.508804
100
AcDbArc
 50
175.9699740000007
 51
279.9999999999986
  0
LINE
  5
11A0
330
1F
100
AcDbEntity
  8
0
 62
     7
 48
0.20791
370
    70
100
AcDbLine
 10
-154.1298792773455
 20
121.788488237387
 30
0.0
 11
-154.7143492773454
 21
113.492667237387
 31
0.0
  0
ARC
  5
11A1
330
1F
100
AcDbEntity
  8
0
 62
     7
370
    70
100
AcDbCircle
 10
-152.6248072773455
 20
121.6824502373869
 30
0.0
 40
1.508804
100
AcDbArc
 50
66.13662599999921
 51
175.9699740000007
  0
ARC
  5
11A2
330
1F
100
AcDbEntity
  8
0
 62
     7
370
    70
100
AcDbCircle
 10
-150.3592862773456
 20
126.8037212373869
 30
0.0
 40
4.091196
100
AcDbArc
 50
246.1366120000019
 51
344.8333619999997
  0
ARC
  5
11A3
330
1F
100
AcDbEntity
  8
0
 62
     7
370
    70
100
AcDbCircle
 10
-144.9543392773455
 20
125.3386082373869
 30
0.0
 40
1.508804
100
AcDbArc
 50
55.000014000001
 51
164.8333619999997
  0
LINE
  5
11A4
330
1F
100
AcDbEntity
  8
0
 62
     7
 48
0.25537
370
    70
100
AcDbLine
 10
-147.2619732773455
 20
131.227142237387
 30
0.0
 11
-138.8945032773455
 21
125.3681762373869
 31
0.0
  0
ARC
  5
11A5
330
1F
100
AcDbEntity
  8
0
 62
     7
370
    70
100
AcDbCircle
 10
-150.3592862773456
 20
126.8037212373869
 30
0.0
 40
5.4
100
AcDbArc
 50
55.00000000000196
 51
175.9699740000007
  0
LINE
  5
11A6
330
1F
100
AcDbEntity
  8
0
 62
     7
 48
0.264197
370
    70
100
AcDbLine
 10
-138.8341682773455
 20
64.711720237387
 30
0.0
 11
-149.2414812773455
 21
62.87663023738701
 31
0.0
  0
LINE
  5
12CD
330
1F
100
AcDbEntity
  8
0
 62
     7
100
AcDbLine
 10
325.3381771429954
 20
135.5066167853564
 30
0.0
 11
325.3381771429954
 21
36.00576108568672
 31
0.0
  0
LINE
  5
12CE
330
1F
100
AcDbEntity
  8
0
 62
     7
100
AcDbLine
 10
512.3340208874552
 20
135.5066167853564
 30
0.0
 11
512.3340208874552
 21
36.00576108568672
 31
0.0
  0
LINE
  5
12CF
330
1F
100
AcDbEntity
  8
0
 62
     7
100
AcDbLine
 10
344.5877492931604
 20
16.75618893552157
 30
0.0
 11
493.0844487372905
 21
16.75618893552157
 31
0.0
  0
LINE
  5
12D0
330
1F
100
AcDbEntity
  8
0
 62
     7
100
AcDbLine
 10
325.3381771429954
 20
36.00576108568672
 30
0.0
 11
344.5877492931604
 21
16.75618893552157
 31
0.0
  0
LINE
  5
12D1
330
1F
100
AcDbEntity
  8
0
 62
     7
100
AcDbLine
 10
493.0844487372905
 20
16.75618893552157
 30
0.0
 11
512.3340208874552
 21
36.00576108568672
 31
0.0
  0
CIRCLE
  5
12D2
330
1F
100
AcDbEntity
  8
0
 62
     7
100
AcDbCircle
 10
329.3381771429954
 20
19.25618893552179
 30
0.0
 40
1.5
  0
CIRCLE
  5
12D3
330
1F
100
AcDbEntity
  8
0
 62
     7
100
AcDbCircle
 10
508.3381771429954
 20
19.25618893552179
 30
0.0
 40
1.5
  0
LINE
  5
12D4
330
1F
100
AcDbEntity
  8
0
 62
     7
100
AcDbLine
 10
344.5877492931604
 20
154.7561889355215
 30
0.0
 11
493.0844487372905
 21
154.7561889355215
 31
0.0
  0
LINE
  5
12D5
330
1F
100
AcDbEntity
  8
0
 62
     7
100
AcDbLine
 10
325.3381771429954
 20
135.5066167853564
 30
0.0
 11
344.5877492931604
 21
154.7561889355215
 31
0.0
  0
CIRCLE
  5
12D6
330
1F
100
AcDbEntity
  8
0
 62
     7
100
AcDbCircle
 10
329.3381771429954
 20
152.2561889355215
 30
0.0
 40
1.5
  0
LINE
  5
12D7
330
1F
100
AcDbEntity
  8
0
 62
     7
100
AcDbLine
 10
493.0844487372905
 20
154.7561889355215
 30
0.0
 11
512.3340208874552
 21
135.5066167853564
 31
0.0
  0
CIRCLE
  5
12D8
330
1F
100
AcDbEntity
  8
0
 62
     7
100
AcDbCircle
 10
508.3381771429954
 20
152.2561889355215
 30
0.0
 40
1.5
  0
DIMENSION
  5
12D9
330
1F
100
AcDbEntity
  8
0
 62
     1
100
AcDbDimension
  2
*D22
 10
512.3340208874552
 20
168.58773376054
 30
0.0
 11
421.7278433961155
 21
168.58773376054
 31
0.0
 70
   160
 71
     0
 42
186.9958437444599
  3
Standard
100
AcDbAlignedDimension
 13
325.3381771429954
 23
135.5066167853564
 33
0.0
 14
512.3340208874552
 24
135.5066167853564
 34
0.0
100
AcDbRotatedDimension
1001
ACAD
1000
DSTYLE
1002
{
1070
    41
1040
5.0
1070
   140
1040
5.0
1070
   271
1070
     1
1002
}
  0
DIMENSION
  5
12DA
330
1F
100
AcDbEntity
  8
0
 62
     1
100
AcDbDimension
  2
*D23
 10
531.6382728154094
 20
154.7561889355215
 30
0.0
 11
531.6382728154094
 21
91.20698414028028
 31
0.0
 70
   160
 71
     0
 42
137.9999999999999
  3
Standard
100
AcDbAlignedDimension
 13
493.0844487372905
 23
16.75618893552157
 33
0.0
 14
493.1469487372904
 24
154.7561889355215
 34
0.0
 50
90.0
100
AcDbRotatedDimension
1001
ACAD
1000
DSTYLE
1002
{
1070
    41
1040
5.0
1070
   140
1040
5.0
1070
   271
1070
     1
1002
}
  0
DIMENSION
  5
12DB
330
1F
100
AcDbEntity
  8
0
 62
     1
100
AcDbDimension
  2
*D24
 10
508.3381771429954
 20
2.928793420699008
 30
0.0
 11
423.5701788752674
 21
2.928793420699008
 31
0.0
 70
   160
 71
     0
 42
179.0000000000001
  3
Standard
100
AcDbAlignedDimension
 13
329.3381771429954
 23
19.25618893552179
 33
0.0
 14
508.3381771429954
 24
19.25618893552179
 34
0.0
100
AcDbRotatedDimension
1001
ACAD
1000
DSTYLE
1002
{
1070
    41
1040
5.0
1070
   140
1040
5.0
1070
   271
1070
     1
1002
}
  0
DIMENSION
  5
12DC
330
1F
100
AcDbEntity
  8
0
 62
     1
100
AcDbDimension
  2
*D25
 10
308.7079193951786
 20
152.2561889355215
 30
0.0
 11
308.7079193951786
 21
83.72304630761018
 31
0.0
 70
   160
 71
     0
 42
132.9999999999997
  3
Standard
100
AcDbAlignedDimension
 13
329.3381771429954
 23
19.25618893552179
 33
0.0
 14
329.4006771429954
 24
152.2561889355215
 34
0.0
 50
90.0
100
AcDbRotatedDimension
1001
ACAD
1000
DSTYLE
1002
{
1070
    41
1040
5.0
1070
   140
1040
5.0
1070
   271
1070
     1
1002
}
  0
ENDSEC
  0
SECTION
  2
OBJECTS
  0
DICTIONARY
  5
C
330
0
100
AcDbDictionary
281
     1
  3
ACAD_CIP_PREVIOUS_PRODUCT_INFO
350
E5A
  3
ACAD_COLOR
350
73
  3
ACAD_DETAILVIEWSTYLE
350
E57
  3
ACAD_GROUP
350
D
  3
ACAD_LAYOUT
350
1A
  3
ACAD_MATERIAL
350
72
  3
ACAD_MLEADERSTYLE
350
D7
  3
ACAD_MLINESTYLE
350
17
  3
ACAD_PLOTSETTINGS
350
19
  3
ACAD_PLOTSTYLENAME
350
E
  3
ACAD_SCALELIST
350
B6
  3
ACAD_SECTIONVIEWSTYLE
350
E55
  3
ACAD_TABLESTYLE
350
86
  3
ACAD_VISUALSTYLE
350
99
  3
ACDB_RECOMPOSE_DATA
350
1392
  3
AcDbVariableDictionary
350
66
  3
DWGPROPS
350
1393
  0
DICTIONARY
  5
F20
330
2
100
AcDbDictionary
280
     1
281
     1
  3
ACAD_LAYERSTATES
360
F21
  0
DICTIONARY
  5
E6
330
10
100
AcDbDictionary
280
     1
281
     1
  3
ADSK_XREC_LAYER_RECONCILED
360
243
  0
DICTIONARY
  5
1281
330
1270
100
AcDbDictionary
280
     1
281
     1
  0
XRECORD
  5
E5A
102
{ACAD_REACTORS
330
C
102
}
330
C
100
AcDbXrecord
280
     1
300
ACD
300
2016
300
ACD_F_S_TL
  0
DICTIONARY
  5
73
102
{ACAD_REACTORS
330
C
102
}
330
C
100
AcDbDictionary
281
     1
  0
DICTIONARY
  5
E57
102
{ACAD_REACTORS
330
C
102
}
330
C
100
AcDbDictionary
281
     1
  3
Imperial24
350
E58
  3
Metric50
350
E62
  0
DICTIONARY
  5
D
102
{ACAD_REACTORS
330
C
102
}
330
C
100
AcDbDictionary
281
     1
  0
DICTIONARY
  5
1A
102
{ACAD_REACTORS
330
C
102
}
330
C
100
AcDbDictionary
281
     1
  3
Layout1
350
59
  3
Layout2
350
5E
  3
Model
350
22
  0
DICTIONARY
  5
72
102
{ACAD_REACTORS
330
C
102
}
330
C
100
AcDbDictionary
281
     1
  3
ByBlock
350
97
  3
ByLayer
350
96
  3
Global
350
98
  0
DICTIONARY
  5
D7
102
{ACAD_REACTORS
330
C
102
}
330
C
100
AcDbDictionary
281
     1
  3
Annotativa
350
E5
  3
Standard
350
D8
  0
DICTIONARY
  5
17
102
{ACAD_REACTORS
330
C
102
}
330
C
100
AcDbDictionary
281
     1
  3
Standard
350
18
  0
DICTIONARY
  5
19
102
{ACAD_REACTORS
330
C
102
}
330
C
100
AcDbDictionary
281
     1
  0
ACDBDICTIONARYWDFLT
  5
E
102
{ACAD_REACTORS
330
C
102
}
330
C
100
AcDbDictionary
281
     1
  3
Normal
350
F
100
AcDbDictionaryWithDefault
340
F
  0
DICTIONARY
  5
B6
102
{ACAD_REACTORS
330
C
102
}
330
C
100
AcDbDictionary
281
     1
  3
A0
350
B7
  3
A1
350
124
  3
A2
350
125
  3
A3
350
126
  3
A4
350
127
  3
A5
350
128
  3
A6
350
129
  3
A7
350
12A
  3
A8
350
12B
  3
A9
350
12C
  3
B0
350
12D
  3
B1
350
12E
  3
B2
350
12F
  3
B3
350
130
  3
B4
350
131
  3
B5
350
132
  3
B6
350
133
  3
B7
350
134
  3
B8
350
135
  3
B9
350
136
  3
C0
350
137
  3
C1
350
138
  3
C2
350
139
  3
C3
350
13A
  3
C4
350
13B
  3
C5
350
13C
  3
C6
350
13D
  3
C7
350
13E
  3
C8
350
13F
  3
C9
350
140
  3
D0
350
141
  3
D1
350
142
  3
D2
350
143
  0
DICTIONARY
  5
E55
102
{ACAD_REACTORS
330
C
102
}
330
C
100
AcDbDictionary
281
     1
  3
Imperial24
350
E56
  3
Metric50
350
E61
  0
DICTIONARY
  5
86
102
{ACAD_REACTORS
330
C
102
}
330
C
100
AcDbDictionary
281
     1
  3
Standard
350
87
  0
DICTIONARY
  5
99
102
{ACAD_REACTORS
330
C
102
}
330
C
100
AcDbDictionary
281
     1
  3
2dWireframe
350
9F
  3
3D Hidden
350
A1
  3
3dWireframe
350
A0
  3
Basic
350
9E
  3
Brighten
350
A5
  3
ColorChange
350
A9
  3
Conceptual
350
A2
  3
Dim
350
A4
  3
EdgeColorOff
350
E54
  3
Facepattern
350
A8
  3
Flat
350
9A
  3
FlatWithEdges
350
9B
  3
Gouraud
350
9C
  3
GouraudWithEdges
350
9D
  3
Hidden
350
E4C
  3
JitterOff
350
E52
  3
Linepattern
350
A7
  3
OverhangOff
350
E53
  3
Realistic
350
A3
  3
Shaded
350
E51
  3
Shaded with edges
350
E50
  3
Shades of Gray
350
E4D
  3
Sketchy
350
E4E
  3
Thicken
350
A6
  3
Wireframe
350
E4B
  3
X-Ray
350
E4F
  0
XRECORD
  5
1392
102
{ACAD_REACTORS
330
C
102
}
330
C
100
AcDbXrecord
280
     1
 90
        1
330
87
  0
DICTIONARY
  5
66
102
{ACAD_REACTORS
330
C
102
}
330
C
100
AcDbDictionary
281
     1
  3
CANNOSCALE
350
F0
  3
CMLEADERSTYLE
350
EF
  3
CTABLESTYLE
350
89
  3
CVIEWDETAILSTYLE
350
11EC
  3
CVIEWSECTIONSTYLE
350
11ED
  3
DIMASSOC
350
67
  3
HIDETEXT
350
6B
  3
INDEXCTL
350
247
  3
LIGHTINGUNITS
350
245
  3
MSLTSCALE
350
244
  3
SORTENTS
350
246
  3
XCLIPFRAME
350
1390
  0
XRECORD
  5
1393
102
{ACAD_REACTORS
330
C
102
}
330
C
100
AcDbXrecord
280
     1
  1
DWGPROPS COOKIE
  2

  3

  4

  6

  7

  8
admx2760
  9

300
=
301
=
302
=
303
=
304
=
305
=
306
=
307
=
308
=
309
=
 40
0.0196010069444445
 41
2455098.373449479
 42
2457233.373587419
  1

 90
        0
  0
DICTIONARY
  5
F21
102
{ACAD_REACTORS
330
F20
102
}
330
F20
100
AcDbDictionary
281
     1
  0
XRECORD
  5
243
102
{ACAD_REACTORS
330
E6
102
}
330
E6
100
AcDbXrecord
280
     1
290
     1
  0
ACDBDETAILVIEWSTYLE
  5
E58
102
{ACAD_XDICTIONARY
360
13D1
102
}
102
{ACAD_REACTORS
330
E57
102
}
330
E57
100
AcDbModelDocViewStyle
 70
     0
  3
Imperial24
290
     0
100
AcDbDetailViewStyle
 70
     0
 71
     0
 90
        3
 71
     1
340
11
 40
0.24
340
0
 40
0.24
300

 40
0.36
280
     3
 71
     2
340
16
 90
       25
 71
     3
340
11
 40
0.24
 90
        1
 40
0.75
 90
        1
300
%<\AcVar ViewType \f "%tc1">% %<\AcVar ViewDetailId>%\PSCALA %<\AcVar ViewScale \f "%sn">%
 71
     4
340
16
 90
       25
340
16
 90
       25
280
     0
  0
ACDBDETAILVIEWSTYLE
  5
E62
102
{ACAD_XDICTIONARY
360
13D5
102
}
102
{ACAD_REACTORS
330
E57
102
}
330
E57
100
AcDbModelDocViewStyle
 70
     0
  3
Metric50
290
     0
100
AcDbDetailViewStyle
 70
     0
 71
     0
 90
        3
 71
     1
340
11
 40
5.0
340
0
 40
5.0
300

 40
0.0
280
     1
 71
     2
340
16
 90
       25
 71
     3
340
11
 40
5.0
 90
        0
 40
15.0
 90
        1
300
%<\AcVar ViewDetailId>% (%<\AcVar ViewScale \f "%sn">%)
 71
     4
340
16
 90
       25
340
16
 90
       25
280
     0
  0
LAYOUT
  5
59
102
{ACAD_XDICTIONARY
360
1396
102
}
102
{ACAD_REACTORS
330
1A
102
}
330
1A
100
AcDbPlotSettings
  1

  2
None
  4

  6

 40
0.0
 41
0.0
 42
0.0
 43
0.0
 44
0.0
 45
0.0
 46
0.0
 47
0.0
 48
0.0
 49
0.0
140
0.0
141
0.0
142
1.0
143
1.0
 70
   688
 72
     0
 73
     0
 74
     5
  7

 75
    16
147
1.0
148
0.0
149
0.0
100
AcDbLayout
  1
Layout1
 70
     1
 71
     1
 10
0.0
 20
0.0
 11
12.0
 21
9.0
 12
0.0
 22
0.0
 32
0.0
 14
0.0
 24
0.0
 34
0.0
 15
0.0
 25
0.0
 35
0.0
146
0.0
 13
0.0
 23
0.0
 33
0.0
 16
1.0
 26
0.0
 36
0.0
 17
0.0
 27
1.0
 37
0.0
 76
     0
330
58
  0
LAYOUT
  5
5E
102
{ACAD_XDICTIONARY
360
1398
102
}
102
{ACAD_REACTORS
330
1A
102
}
330
1A
100
AcDbPlotSettings
  1

  2
None
  4

  6

 40
0.0
 41
0.0
 42
0.0
 43
0.0
 44
0.0
 45
0.0
 46
0.0
 47
0.0
 48
0.0
 49
0.0
140
0.0
141
0.0
142
1.0
143
1.0
 70
   688
 72
     0
 73
     0
 74
     5
  7

 75
    16
147
1.0
148
0.0
149
0.0
100
AcDbLayout
  1
Layout2
 70
     1
 71
     2
 10
0.0
 20
0.0
 11
12.0
 21
9.0
 12
0.0
 22
0.0
 32
0.0
 14
0.0
 24
0.0
 34
0.0
 15
0.0
 25
0.0
 35
0.0
146
0.0
 13
0.0
 23
0.0
 33
0.0
 16
1.0
 26
0.0
 36
0.0
 17
0.0
 27
1.0
 37
0.0
 76
     0
330
5D
  0
LAYOUT
  5
22
102
{ACAD_XDICTIONARY
360
1394
102
}
102
{ACAD_REACTORS
330
1A
102
}
330
1A
100
AcDbPlotSettings
  1

  2
none_device
  4
ANSI_A_(8.50_x_11.00_Inches)
  6

 40
6.349999904632567
 41
19.04999923706055
 42
6.350006103515625
 43
19.04998779296875
 44
215.8999938964844
 45
279.3999938964844
 46
0.0
 47
0.0
 48
0.0
 49
0.0
140
0.0
141
0.0
142
1.0
143
2.584895464708373
 70
 11952
 72
     0
 73
     1
 74
     0
  7

 75
     0
147
0.3868628397755418
148
0.0
149
0.0
100
AcDbLayout
  1
Model
 70
     1
 71
     0
 10
0.0
 20
0.0
 11
12.0
 21
9.0
 12
0.0
 22
0.0
 32
0.0
 14
0.0
 24
0.0
 34
0.0
 15
0.0
 25
0.0
 35
0.0
146
0.0
 13
0.0
 23
0.0
 33
0.0
 16
1.0
 26
0.0
 36
0.0
 17
0.0
 27
1.0
 37
0.0
 76
     0
330
1F
331
94
  0
MATERIAL
  5
97
102
{ACAD_XDICTIONARY
360
944
102
}
102
{ACAD_REACTORS
330
72
102
}
330
72
100
AcDbMaterial
  1
ByBlock
  0
MATERIAL
  5
96
102
{ACAD_XDICTIONARY
360
942
102
}
102
{ACAD_REACTORS
330
72
102
}
330
72
100
AcDbMaterial
  1
ByLayer
  0
MATERIAL
  5
98
102
{ACAD_XDICTIONARY
360
110
102
}
102
{ACAD_REACTORS
330
72
102
}
330
72
100
AcDbMaterial
  1
Global
 43
0.0208000000566244
 43
0.0
 43
0.0
 43
0.0
 43
0.0
 43
0.0208000000566244
 43
0.0
 43
0.0
 43
0.0
 43
0.0
 43
1.0
 43
0.0
 43
0.0
 43
0.0
 43
0.0
 43
1.0
 49
0.0208000000566244
 49
0.0
 49
0.0
 49
0.0
 49
0.0
 49
0.0208000000566244
 49
0.0
 49
0.0
 49
0.0
 49
0.0
 49
1.0
 49
0.0
 49
0.0
 49
0.0
 49
0.0
 49
1.0
142
0.0208000000566244
142
0.0
142
0.0
142
0.0
142
0.0
142
0.0208000000566244
142
0.0
142
0.0
142
0.0
142
0.0
142
1.0
142
0.0
142
0.0
142
0.0
142
0.0
142
1.0
144
0.0208000000566244
144
0.0
144
0.0
144
0.0
144
0.0
144
0.0208000000566244
144
0.0
144
0.0
144
0.0
144
0.0
144
1.0
144
0.0
144
0.0
144
0.0
144
0.0
144
1.0
1001
ACAD
1070
    -1
1070
     3
1070
     0
1000

1071
        0
1070
     0
  0
MLEADERSTYLE
  5
E5
102
{ACAD_REACTORS
330
D7
102
}
330
D7
100
AcDbMLeaderStyle
170
     2
171
     1
172
     0
 90
        2
 40
0.0
 41
0.0
173
     1
 91
-1056964608
340
14
 92
       -2
290
     1
 42
0.09
291
     1
 43
0.36
  3
Standard
 44
0.18
300

342
11
174
     1
178
     1
175
     1
176
     0
 93
-1056964608
 45
0.18
292
     0
297
     0
 46
0.18
 94
-1056964608
 47
1.0
 49
1.0
140
1.0
293
     1
141
0.0
294
     1
177
     0
142
1.0
295
     0
296
     1
143
0.125
1001
ACAD_MLEADERVER
1070
     2
  0
MLEADERSTYLE
  5
D8
102
{ACAD_REACTORS
330
D7
102
}
330
D7
100
AcDbMLeaderStyle
170
     2
171
     1
172
     0
 90
        2
 40
0.0
 41
0.0
173
     1
 91
-1056964608
340
14
 92
       -2
290
     1
 42
0.09
291
     1
 43
0.36
  3
Standard
 44
0.18
300

342
11
174
     1
178
     1
175
     1
176
     0
 93
-1056964608
 45
0.18
292
     0
297
     0
 46
0.18
 94
-1056964608
 47
1.0
 49
1.0
140
1.0
293
     1
141
0.0
294
     1
177
     0
142
1.0
295
     0
296
     0
143
0.125
1001
ACAD_MLEADERVER
1070
     2
  0
MLINESTYLE
  5
18
102
{ACAD_REACTORS
330
17
102
}
330
17
100
AcDbMlineStyle
  2
STANDARD
 70
     0
  3

 62
   256
 51
90.0
 52
90.0
 71
     2
 49
0.5
 62
   256
  6
BYLAYER
 49
-0.5
 62
   256
  6
BYLAYER
  0
ACDBPLACEHOLDER
  5
F
102
{ACAD_REACTORS
330
E
102
}
330
E
  0
SCALE
  5
B7
102
{ACAD_REACTORS
330
B6
102
}
330
B6
100
AcDbScale
 70
     0
300
1:1
140
1.0
141
1.0
290
     1
  0
SCALE
  5
124
102
{ACAD_REACTORS
330
B6
102
}
330
B6
100
AcDbScale
 70
     0
300
1:2
140
1.0
141
2.0
290
     0
  0
SCALE
  5
125
102
{ACAD_REACTORS
330
B6
102
}
330
B6
100
AcDbScale
 70
     0
300
1:4
140
1.0
141
4.0
290
     0
  0
SCALE
  5
126
102
{ACAD_REACTORS
330
B6
102
}
330
B6
100
AcDbScale
 70
     0
300
1:5
140
1.0
141
5.0
290
     0
  0
SCALE
  5
127
102
{ACAD_REACTORS
330
B6
102
}
330
B6
100
AcDbScale
 70
     0
300
1:8
140
1.0
141
8.0
290
     0
  0
SCALE
  5
128
102
{ACAD_REACTORS
330
B6
102
}
330
B6
100
AcDbScale
 70
     0
300
1:10
140
1.0
141
10.0
290
     0
  0
SCALE
  5
129
102
{ACAD_REACTORS
330
B6
102
}
330
B6
100
AcDbScale
 70
     0
300
1:16
140
1.0
141
16.0
290
     0
  0
SCALE
  5
12A
102
{ACAD_REACTORS
330
B6
102
}
330
B6
100
AcDbScale
 70
     0
300
1:20
140
1.0
141
20.0
290
     0
  0
SCALE
  5
12B
102
{ACAD_REACTORS
330
B6
102
}
330
B6
100
AcDbScale
 70
     0
300
1:30
140
1.0
141
30.0
290
     0
  0
SCALE
  5
12C
102
{ACAD_REACTORS
330
B6
102
}
330
B6
100
AcDbScale
 70
     0
300
1:40
140
1.0
141
40.0
290
     0
  0
SCALE
  5
12D
102
{ACAD_REACTORS
330
B6
102
}
330
B6
100
AcDbScale
 70
     0
300
1:50
140
1.0
141
50.0
290
     0
  0
SCALE
  5
12E
102
{ACAD_REACTORS
330
B6
102
}
330
B6
100
AcDbScale
 70
     0
300
1:100
140
1.0
141
100.0
290
     0
  0
SCALE
  5
12F
102
{ACAD_REACTORS
330
B6
102
}
330
B6
100
AcDbScale
 70
     0
300
2:1
140
2.0
141
1.0
290
     0
  0
SCALE
  5
130
102
{ACAD_REACTORS
330
B6
102
}
330
B6
100
AcDbScale
 70
     0
300
4:1
140
4.0
141
1.0
290
     0
  0
SCALE
  5
131
102
{ACAD_REACTORS
330
B6
102
}
330
B6
100
AcDbScale
 70
     0
300
8:1
140
8.0
141
1.0
290
     0
  0
SCALE
  5
132
102
{ACAD_REACTORS
330
B6
102
}
330
B6
100
AcDbScale
 70
     0
300
10:1
140
10.0
141
1.0
290
     0
  0
SCALE
  5
133
102
{ACAD_REACTORS
330
B6
102
}
330
B6
100
AcDbScale
 70
     0
300
100:1
140
100.0
141
1.0
290
     0
  0
SCALE
  5
134
102
{ACAD_REACTORS
330
B6
102
}
330
B6
100
AcDbScale
 70
     0
300
1/128" = 1'-0"
140
0.0078125
141
12.0
290
     0
  0
SCALE
  5
135
102
{ACAD_REACTORS
330
B6
102
}
330
B6
100
AcDbScale
 70
     0
300
1/64" = 1'-0"
140
0.015625
141
12.0
290
     0
  0
SCALE
  5
136
102
{ACAD_REACTORS
330
B6
102
}
330
B6
100
AcDbScale
 70
     0
300
1/32" = 1'-0"
140
0.03125
141
12.0
290
     0
  0
SCALE
  5
137
102
{ACAD_REACTORS
330
B6
102
}
330
B6
100
AcDbScale
 70
     0
300
1/16" = 1'-0"
140
0.0625
141
12.0
290
     0
  0
SCALE
  5
138
102
{ACAD_REACTORS
330
B6
102
}
330
B6
100
AcDbScale
 70
     0
300
3/32" = 1'-0"
140
0.09375
141
12.0
290
     0
  0
SCALE
  5
139
102
{ACAD_REACTORS
330
B6
102
}
330
B6
100
AcDbScale
 70
     0
300
1/8" = 1'-0"
140
0.125
141
12.0
290
     0
  0
SCALE
  5
13A
102
{ACAD_REACTORS
330
B6
102
}
330
B6
100
AcDbScale
 70
     0
300
3/16" = 1'-0"
140
0.1875
141
12.0
290
     0
  0
SCALE
  5
13B
102
{ACAD_REACTORS
330
B6
102
}
330
B6
100
AcDbScale
 70
     0
300
1/4" = 1'-0"
140
0.25
141
12.0
290
     0
  0
SCALE
  5
13C
102
{ACAD_REACTORS
330
B6
102
}
330
B6
100
AcDbScale
 70
     0
300
3/8" = 1'-0"
140
0.375
141
12.0
290
     0
  0
SCALE
  5
13D
102
{ACAD_REACTORS
330
B6
102
}
330
B6
100
AcDbScale
 70
     0
300
1/2" = 1'-0"
140
0.5
141
12.0
290
     0
  0
SCALE
  5
13E
102
{ACAD_REACTORS
330
B6
102
}
330
B6
100
AcDbScale
 70
     0
300
3/4" = 1'-0"
140
0.75
141
12.0
290
     0
  0
SCALE
  5
13F
102
{ACAD_REACTORS
330
B6
102
}
330
B6
100
AcDbScale
 70
     0
300
1" = 1'-0"
140
1.0
141
12.0
290
     0
  0
SCALE
  5
140
102
{ACAD_REACTORS
330
B6
102
}
330
B6
100
AcDbScale
 70
     0
300
1-1/2" = 1'-0"
140
1.5
141
12.0
290
     0
  0
SCALE
  5
141
102
{ACAD_REACTORS
330
B6
102
}
330
B6
100
AcDbScale
 70
     0
300
3" = 1'-0"
140
3.0
141
12.0
290
     0
  0
SCALE
  5
142
102
{ACAD_REACTORS
330
B6
102
}
330
B6
100
AcDbScale
 70
     0
300
6" = 1'-0"
140
6.0
141
12.0
290
     0
  0
SCALE
  5
143
102
{ACAD_REACTORS
330
B6
102
}
330
B6
100
AcDbScale
 70
     0
300
1'-0" = 1'-0"
140
12.0
141
12.0
290
     0
  0
ACDBSECTIONVIEWSTYLE
  5
E56
102
{ACAD_XDICTIONARY
360
13CF
102
}
102
{ACAD_REACTORS
330
E55
102
}
330
E55
100
AcDbModelDocViewStyle
 70
     0
  3
Imperial24
290
     0
100
AcDbSectionViewStyle
 70
     0
 71
     0
 90
       78
 71
     1
340
11
 40
0.24
340
0
340
0
 40
0.24
300
I, O, Q, S, X, Z
 40
0.48
 90
        3
 40
0.18
 90
        1
 71
     2
340
16
 90
       25
340
16
 90
       50
 40
0.24
 40
0.0
 40
0.24
 71
     3
340
11
 40
0.24
 90
        1
 40
0.75
 90
        1
300
%<\AcVar ViewType \f "%tc1">% %<\AcVar ViewSectionStartId>%-%<\AcVar ViewSectionEndId>%\PSCALA %<\AcVar ViewScale \f "%sn">%
 71
     4
300
ANSI31
 40
1.0
 90
        0
290
     0
290
     0
 90
        6
 40
0.0
 40
1.570796326794896
 40
0.2617993877991494
 40
1.308996938995747
 40
-0.2617993877991494
 40
1.832595714594045
  0
ACDBSECTIONVIEWSTYLE
  5
E61
102
{ACAD_XDICTIONARY
360
13D3
102
}
102
{ACAD_REACTORS
330
E55
102
}
330
E55
100
AcDbModelDocViewStyle
 70
     0
  3
Metric50
290
     0
100
AcDbSectionViewStyle
 70
     0
 71
     0
 90
      102
 71
     1
340
11
 40
5.0
340
0
340
0
 40
5.0
300
I, O, Q, S, X, Z
 40
10.0
 90
        0
 40
2.5
 90
        0
 71
     2
340
16
 90
       25
340
16
 90
       50
 40
5.0
 40
2.5
 40
5.0
 71
     3
340
11
 40
5.0
 90
        0
 40
15.0
 90
        1
300
%<\AcVar ViewSectionStartId>%-%<\AcVar ViewSectionEndId>% (%<\AcVar ViewScale \f "%sn">%)
 71
     4
300
ANSI31
 40
1.0
 90
        0
290
     0
290
     0
 90
        6
 40
0.0
 40
1.570796326794896
 40
0.2617993877991494
 40
1.308996938995747
 40
-0.2617993877991494
 40
1.832595714594045
  0
TABLESTYLE
  5
87
102
{ACAD_XDICTIONARY
360
104
102
}
102
{ACAD_REACTORS
330
86
102
}
330
86
100
AcDbTableStyle
  3
Standard
 70
     0
 71
     0
 40
0.06
 41
0.06
280
     0
281
     0
  7
Standard
140
0.18
170
     2
 62
     0
 63
     7
283
     0
274
    -2
284
     1
 64
     0
275
    -2
285
     1
 65
     0
276
    -2
286
     1
 66
     0
277
    -2
287
     1
 67
     0
278
    -2
288
     1
 68
     0
279
    -2
289
     1
 69
     0
  7
Standard
140
0.25
170
     5
 62
     0
 63
     7
283
     0
274
    -2
284
     1
 64
     0
275
    -2
285
     1
 65
     0
276
    -2
286
     1
 66
     0
277
    -2
287
     1
 67
     0
278
    -2
288
     1
 68
     0
279
    -2
289
     1
 69
     0
  7
Standard
140
0.18
170
     5
 62
     0
 63
     7
283
     0
274
    -2
284
     1
 64
     0
275
    -2
285
     1
 65
     0
276
    -2
286
     1
 66
     0
277
    -2
287
     1
 67
     0
278
    -2
288
     1
 68
     0
279
    -2
289
     1
 69
     0
  0
VISUALSTYLE
  5
9F
102
{ACAD_XDICTIONARY
360
13A5
102
}
102
{ACAD_REACTORS
330
99
102
}
330
99
100
AcDbVisualStyle
  2

 70
     4
 71
     0
 72
     2
 73
     1
 90
        0
 40
-0.6
 41
-30.0
 62
     5
 63
     7
 74
     1
 91
        4
 64
     7
 65
   257
 75
     1
175
     1
 42
1.0
 92
        0
 66
   257
 43
1.0
 76
     1
 77
     6
 78
     2
 67
     7
 79
     5
170
     0
171
     0
290
     0
174
     0
 93
        1
 44
0.0
173
     0
291
     0
 45
0.0
1001
ACAD
1000
AcDbSavedByObjectVersion
1070
     0
  0
VISUALSTYLE
  5
A1
102
{ACAD_XDICTIONARY
360
13A9
102
}
102
{ACAD_REACTORS
330
99
102
}
330
99
100
AcDbVisualStyle
  2

 70
     6
 71
     1
 72
     2
 73
     2
 90
        0
 40
-0.6
 41
-30.0
 62
     5
 63
     7
 74
     2
 91
        2
 64
     7
 65
   257
 75
     2
175
     1
 42
40.0
 92
        0
 66
   257
 43
1.0
 76
     1
 77
     6
 78
     2
 67
     7
 79
     3
170
     0
171
     0
290
     0
174
     0
 93
        1
 44
0.0
173
     0
291
     0
 45
0.0
1001
ACAD
1000
AcDbSavedByObjectVersion
1070
     0
  0
VISUALSTYLE
  5
A0
102
{ACAD_XDICTIONARY
360
13A7
102
}
102
{ACAD_REACTORS
330
99
102
}
330
99
100
AcDbVisualStyle
  2

 70
     5
 71
     0
 72
     2
 73
     1
 90
        0
 40
-0.6
 41
-30.0
 62
     5
 63
     7
 74
     1
 91
        4
 64
     7
 65
   257
 75
     1
175
     1
 42
1.0
 92
        0
 66
   257
 43
1.0
 76
     1
 77
     6
 78
     2
 67
     7
 79
     5
170
     0
171
     0
290
     0
174
     0
 93
        1
 44
0.0
173
     0
291
     0
 45
0.0
1001
ACAD
1000
AcDbSavedByObjectVersion
1070
     0
  0
VISUALSTYLE
  5
9E
102
{ACAD_XDICTIONARY
360
13A3
102
}
102
{ACAD_REACTORS
330
99
102
}
330
99
100
AcDbVisualStyle
  2

 70
     7
 71
     1
 72
     0
 73
     1
 90
        0
 40
-0.6
 41
-30.0
 62
     5
 63
     7
 74
     0
 91
        4
 64
     7
 65
   257
 75
     1
175
     1
 42
1.0
 92
        8
 66
     7
 43
1.0
 76
     1
 77
     6
 78
     2
 67
     7
 79
     5
170
     0
171
     0
290
     0
174
     0
 93
        1
 44
0.0
173
     0
291
     1
 45
0.0
1001
ACAD
1000
AcDbSavedByObjectVersion
1070
     0
  0
VISUALSTYLE
  5
A5
102
{ACAD_XDICTIONARY
360
13B1
102
}
102
{ACAD_REACTORS
330
99
102
}
330
99
100
AcDbVisualStyle
  2

 70
    12
 71
     2
 72
     2
 73
     1
 90
        0
 40
-0.6
 41
-30.0
 62
     5
 63
     7
 74
     1
 91
        4
 64
     7
 65
   257
 75
     1
175
     1
 42
1.0
 92
        8
 66
     7
 43
1.0
 76
     1
 77
     6
 78
     2
 67
     7
 79
     5
170
     0
171
     0
290
     0
174
     0
 93
        1
 44
50.0
173
     0
291
     1
 45
0.0
1001
ACAD
1000
AcDbSavedByObjectVersion
1070
     0
  0
VISUALSTYLE
  5
A9
102
{ACAD_XDICTIONARY
360
13B9
102
}
102
{ACAD_REACTORS
330
99
102
}
330
99
100
AcDbVisualStyle
  2

 70
    16
 71
     2
 72
     2
 73
     3
 90
        0
 40
-0.6
 41
-30.0
 62
     5
 63
     8
 74
     1
 91
        4
 64
     7
 65
   257
 75
     1
175
     1
 42
1.0
 92
        8
 66
     8
 43
1.0
 76
     1
 77
     6
 78
     2
 67
     7
 79
     5
170
     0
171
     0
290
     0
174
     0
 93
        1
 44
0.0
173
     0
291
     1
 45
0.0
1001
ACAD
1000
AcDbSavedByObjectVersion
1070
     0
  0
VISUALSTYLE
  5
A2
102
{ACAD_XDICTIONARY
360
13AB
102
}
102
{ACAD_REACTORS
330
99
102
}
330
99
100
AcDbVisualStyle
  2

 70
     9
 71
     3
 72
     2
 73
     1
 90
        0
 40
-0.6
 41
-30.0
 62
     5
 63
     7
 74
     2
 91
        2
 64
     7
 65
   257
 75
     1
175
     1
 42
40.0
 92
        8
 66
     7
 43
1.0
 76
     1
 77
     6
 78
     2
 67
     7
 79
     3
170
     0
171
     0
290
     0
174
     0
 93
        1
 44
0.0
173
     0
291
     0
 45
0.0
1001
ACAD
1000
AcDbSavedByObjectVersion
1070
     0
  0
VISUALSTYLE
  5
A4
102
{ACAD_XDICTIONARY
360
13AF
102
}
102
{ACAD_REACTORS
330
99
102
}
330
99
100
AcDbVisualStyle
  2

 70
    11
 71
     2
 72
     2
 73
     1
 90
        0
 40
-0.6
 41
-30.0
 62
     5
 63
     7
 74
     1
 91
        4
 64
     7
 65
   257
 75
     1
175
     1
 42
1.0
 92
        8
 66
     7
 43
1.0
 76
     1
 77
     6
 78
     2
 67
     7
 79
     5
170
     0
171
     0
290
     0
174
     0
 93
        1
 44
-50.0
173
     0
291
     1
 45
0.0
1001
ACAD
1000
AcDbSavedByObjectVersion
1070
     0
  0
VISUALSTYLE
  5
E54
102
{ACAD_XDICTIONARY
360
13CD
102
}
102
{ACAD_REACTORS
330
99
102
}
330
99
100
AcDbVisualStyle
  2

 70
    22
 71
     2
 72
     2
 73
     0
 90
        0
 40
-0.6
 41
-30.0
 62
     5
 63
     7
 74
     1
 91
        4
 64
     7
 65
   257
 75
     1
175
     1
 42
1.0
 92
        8
 66
     7
 43
1.0
 76
     1
 77
     6
 78
     2
 67
     7
 79
     5
170
     0
171
     0
290
     0
174
     0
 93
        1
 44
0.0
173
     0
291
     1
 45
0.0
1001
ACAD
1000
AcDbSavedByObjectVersion
1070
     0
  0
VISUALSTYLE
  5
A8
102
{ACAD_XDICTIONARY
360
13B7
102
}
102
{ACAD_REACTORS
330
99
102
}
330
99
100
AcDbVisualStyle
  2

 70
    15
 71
     2
 72
     2
 73
     1
 90
        0
 40
-0.6
 41
-30.0
 62
     5
 63
     7
 74
     1
 91
        4
 64
     7
 65
   257
 75
     1
175
     1
 42
1.0
 92
        8
 66
     7
 43
1.0
 76
     1
 77
     6
 78
     2
 67
     7
 79
     5
170
     0
171
     0
290
     0
174
     0
 93
        1
 44
0.0
173
     0
291
     1
 45
0.0
1001
ACAD
1000
AcDbSavedByObjectVersion
1070
     0
  0
VISUALSTYLE
  5
9A
102
{ACAD_XDICTIONARY
360
139B
102
}
102
{ACAD_REACTORS
330
99
102
}
330
99
100
AcDbVisualStyle
  2

 70
     0
 71
     2
 72
     1
 73
     1
 90
        2
 40
-0.6
 41
30.0
 62
     5
 63
     7
 74
     0
 91
        4
 64
     7
 65
   257
 75
     1
175
     1
 42
1.0
 92
        8
 66
     7
 43
1.0
 76
     1
 77
     6
 78
     2
 67
     7
 79
     5
170
     0
171
     0
290
     0
174
     0
 93
        1
 44
0.0
173
     0
291
     1
 45
0.0
1001
ACAD
1000
AcDbSavedByObjectVersion
1070
     0
  0
VISUALSTYLE
  5
9B
102
{ACAD_XDICTIONARY
360
139D
102
}
102
{ACAD_REACTORS
330
99
102
}
330
99
100
AcDbVisualStyle
  2

 70
     1
 71
     2
 72
     1
 73
     1
 90
        2
 40
-0.6
 41
30.0
 62
     5
 63
     7
 74
     1
 91
        4
 64
     7
 65
   257
 75
     1
175
     1
 42
1.0
 92
        0
 66
   257
 43
1.0
 76
     1
 77
     6
 78
     2
 67
     7
 79
     5
170
     0
171
     0
290
     0
174
     0
 93
        1
 44
0.0
173
     0
291
     1
 45
0.0
1001
ACAD
1000
AcDbSavedByObjectVersion
1070
     0
  0
VISUALSTYLE
  5
9C
102
{ACAD_XDICTIONARY
360
139F
102
}
102
{ACAD_REACTORS
330
99
102
}
330
99
100
AcDbVisualStyle
  2

 70
     2
 71
     2
 72
     2
 73
     1
 90
        2
 40
-0.6
 41
30.0
 62
     5
 63
     7
 74
     0
 91
        4
 64
     7
 65
   257
 75
     1
175
     1
 42
1.0
 92
        0
 66
     7
 43
1.0
 76
     1
 77
     6
 78
     2
 67
     7
 79
     5
170
     0
171
     0
290
     0
174
     0
 93
        1
 44
0.0
173
     0
291
     1
 45
0.0
1001
ACAD
1000
AcDbSavedByObjectVersion
1070
     0
  0
VISUALSTYLE
  5
9D
102
{ACAD_XDICTIONARY
360
13A1
102
}
102
{ACAD_REACTORS
330
99
102
}
330
99
100
AcDbVisualStyle
  2

 70
     3
 71
     2
 72
     2
 73
     1
 90
        2
 40
-0.6
 41
30.0
 62
     5
 63
     7
 74
     1
 91
        4
 64
     7
 65
   257
 75
     1
175
     1
 42
1.0
 92
        0
 66
   257
 43
1.0
 76
     1
 77
     6
 78
     2
 67
     7
 79
     5
170
     0
171
     0
290
     0
174
     0
 93
        1
 44
0.0
173
     0
291
     1
 45
0.0
1001
ACAD
1000
AcDbSavedByObjectVersion
1070
     0
  0
VISUALSTYLE
  5
E4C
102
{ACAD_XDICTIONARY
360
13BD
102
}
102
{ACAD_REACTORS
330
99
102
}
330
99
100
AcDbVisualStyle
  2

 70
     6
 71
     1
 72
     2
 73
     2
 90
        0
 40
-0.6
 41
-30.0
 62
     5
 63
     7
 74
     2
 91
        2
 64
     7
 65
   257
 75
     2
175
     1
 42
40.0
 92
        0
 66
   257
 43
1.0
 76
     1
 77
     6
 78
     2
 67
     7
 79
     3
170
     0
171
     0
290
     0
174
     0
 93
        1
 44
0.0
173
     0
291
     0
 45
0.0
1001
ACAD
1000
AcDbSavedByObjectVersion
1070
     0
  0
VISUALSTYLE
  5
E52
102
{ACAD_XDICTIONARY
360
13C9
102
}
102
{ACAD_REACTORS
330
99
102
}
330
99
100
AcDbVisualStyle
  2

 70
    20
 71
     2
 72
     2
 73
     0
 90
        0
 40
-0.6
 41
-30.0
 62
     5
 63
     7
 74
     1
 91
        4
 64
     7
 65
   257
 75
     1
175
     1
 42
1.0
 92
       10
 66
     7
 43
1.0
 76
     1
 77
     6
 78
     2
 67
     7
 79
     5
170
     0
171
     0
290
     0
174
     0
 93
        1
 44
0.0
173
     0
291
     1
 45
0.0
1001
ACAD
1000
AcDbSavedByObjectVersion
1070
     0
  0
VISUALSTYLE
  5
A7
102
{ACAD_XDICTIONARY
360
13B5
102
}
102
{ACAD_REACTORS
330
99
102
}
330
99
100
AcDbVisualStyle
  2

 70
    14
 71
     2
 72
     2
 73
     1
 90
        0
 40
-0.6
 41
-30.0
 62
     5
 63
     7
 74
     1
 91
        4
 64
     7
 65
   257
 75
     7
175
     7
 42
1.0
 92
        8
 66
     7
 43
1.0
 76
     1
 77
     6
 78
     2
 67
     7
 79
     5
170
     0
171
     0
290
     0
174
     0
 93
        1
 44
0.0
173
     0
291
     1
 45
0.0
1001
ACAD
1000
AcDbSavedByObjectVersion
1070
     0
  0
VISUALSTYLE
  5
E53
102
{ACAD_XDICTIONARY
360
13CB
102
}
102
{ACAD_REACTORS
330
99
102
}
330
99
100
AcDbVisualStyle
  2

 70
    21
 71
     2
 72
     2
 73
     0
 90
        0
 40
-0.6
 41
-30.0
 62
     5
 63
     7
 74
     1
 91
        4
 64
     7
 65
   257
 75
     1
175
     1
 42
1.0
 92
        9
 66
     7
 43
1.0
 76
     1
 77
     6
 78
     2
 67
     7
 79
     5
170
     0
171
     0
290
     0
174
     0
 93
        1
 44
0.0
173
     0
291
     1
 45
0.0
1001
ACAD
1000
AcDbSavedByObjectVersion
1070
     0
  0
VISUALSTYLE
  5
A3
102
{ACAD_XDICTIONARY
360
13AD
102
}
102
{ACAD_REACTORS
330
99
102
}
330
99
100
AcDbVisualStyle
  2

 70
     8
 71
     2
 72
     2
 73
     1
 90
        0
 40
-0.6
 41
-30.0
 62
     5
 63
     7
 74
     1
 91
        0
 64
     7
 65
   257
 75
     1
175
     1
 42
1.0
 92
        8
 66
     8
 43
1.0
 76
     1
 77
     6
 78
     2
 67
     7
 79
     5
170
     0
171
     0
290
     0
174
     0
 93
       13
 44
0.0
173
     0
291
     0
 45
0.0
1001
ACAD
1000
AcDbSavedByObjectVersion
1070
     0
  0
VISUALSTYLE
  5
E51
102
{ACAD_XDICTIONARY
360
13C7
102
}
102
{ACAD_REACTORS
330
99
102
}
330
99
100
AcDbVisualStyle
  2

 70
    27
 71
     2
 72
     2
 73
     1
 90
        2
 40
-0.6
 41
30.0
 62
     5
 63
     7
 74
     0
 91
        4
 64
     7
 65
   257
 75
     1
175
     1
 42
1.0
 92
        8
 66
   257
 43
1.0
 76
     1
 77
     6
 78
     2
 67
     8
 79
     3
170
     0
171
     0
290
     0
174
     0
 93
        5
 44
0.0
173
     0
291
     0
 45
0.0
1001
ACAD
1000
AcDbSavedByObjectVersion
1070
     0
  0
VISUALSTYLE
  5
E50
102
{ACAD_XDICTIONARY
360
13C5
102
}
102
{ACAD_REACTORS
330
99
102
}
330
99
100
AcDbVisualStyle
  2

 70
    26
 71
     2
 72
     2
 73
     1
 90
        2
 40
-0.6
 41
30.0
 62
     5
 63
     7
 74
     1
 91
       10
 64
     7
 65
   257
 75
     2
175
     1
 42
1.0
 92
        8
 66
   257
 43
1.0
 76
     1
 77
     6
 78
     2
 67
     7
 79
     3
170
     0
171
     0
290
     0
174
     0
 93
        5
 44
0.0
173
     0
291
     0
 45
0.0
1001
ACAD
1000
AcDbSavedByObjectVersion
1070
     0
  0
VISUALSTYLE
  5
E4D
102
{ACAD_XDICTIONARY
360
13BF
102
}
102
{ACAD_REACTORS
330
99
102
}
330
99
100
AcDbVisualStyle
  2

 70
    23
 71
     2
 72
     2
 73
     3
 90
        0
 40
-0.6
 41
-30.0
 62
     5
 63
     7
 74
     2
 91
        2
 64
     7
 65
     7
 75
     1
175
     1
 42
40.0
 92
        8
 66
     7
 43
1.0
 76
     1
 77
     6
 78
     2
 67
     7
 79
     3
170
     0
171
     0
290
     0
174
     0
 93
        1
 44
0.0
173
     0
291
     0
 45
0.0
1001
ACAD
1000
AcDbSavedByObjectVersion
1070
     0
  0
VISUALSTYLE
  5
E4E
102
{ACAD_XDICTIONARY
360
13C1
102
}
102
{ACAD_REACTORS
330
99
102
}
330
99
100
AcDbVisualStyle
  2

 70
    24
 71
     1
 72
     2
 73
     2
 90
        0
 40
-0.6
 41
-30.0
 62
     5
 63
     7
 74
     2
 91
        2
 64
     7
 65
     7
 75
     1
175
     1
 42
40.0
 92
       11
 66
     7
 43
1.0
 76
     1
 77
     6
 78
     2
 67
     7
 79
     6
170
     0
171
     0
290
     0
174
     0
 93
        1
 44
0.0
173
     0
291
     0
 45
0.0
1001
ACAD
1000
AcDbSavedByObjectVersion
1070
     0
  0
VISUALSTYLE
  5
A6
102
{ACAD_XDICTIONARY
360
13B3
102
}
102
{ACAD_REACTORS
330
99
102
}
330
99
100
AcDbVisualStyle
  2

 70
    13
 71
     2
 72
     2
 73
     1
 90
        0
 40
-0.6
 41
-30.0
 62
     5
 63
     7
 74
     1
 91
        4
 64
     7
 65
   257
 75
     1
175
     1
 42
1.0
 92
       12
 66
     7
 43
1.0
 76
     1
 77
     6
 78
     2
 67
     7
 79
     5
170
     0
171
     0
290
     0
174
     0
 93
        1
 44
0.0
173
     0
291
     1
 45
0.0
1001
ACAD
1000
AcDbSavedByObjectVersion
1070
     0
  0
VISUALSTYLE
  5
E4B
102
{ACAD_XDICTIONARY
360
13BB
102
}
102
{ACAD_REACTORS
330
99
102
}
330
99
100
AcDbVisualStyle
  2

 70
     5
 71
     0
 72
     2
 73
     0
 90
        0
 40
-0.6
 41
-30.0
 62
     5
 63
     7
 74
     1
 91
        4
 64
     7
 65
   257
 75
     1
175
     1
 42
1.0
 92
        0
 66
   257
 43
1.0
 76
     1
 77
     6
 78
     2
 67
     7
 79
     3
170
     0
171
     0
290
     0
174
     0
 93
        1
 44
0.0
173
     0
291
     0
 45
0.0
1001
ACAD
1000
AcDbSavedByObjectVersion
1070
     0
  0
VISUALSTYLE
  5
E4F
102
{ACAD_XDICTIONARY
360
13C3
102
}
102
{ACAD_REACTORS
330
99
102
}
330
99
100
AcDbVisualStyle
  2

 70
    25
 71
     2
 72
     2
 73
     1
 90
        1
 40
0.5
 41
-30.0
 62
     5
 63
     7
 74
     1
 91
        0
 64
     7
 65
   257
 75
     1
175
     1
 42
1.0
 92
        8
 66
     7
 43
1.0
 76
     1
 77
     6
 78
     2
 67
     7
 79
     3
170
     0
171
     0
290
     0
174
     0
 93
       13
 44
0.0
173
     0
291
     0
 45
0.0
1001
ACAD
1000
AcDbSavedByObjectVersion
1070
     0
  0
DICTIONARYVAR
  5
F0
102
{ACAD_REACTORS
330
66
102
}
330
66
100
DictionaryVariables
280
     0
  1
1:1
  0
DICTIONARYVAR
  5
EF
102
{ACAD_REACTORS
330
66
102
}
330
66
100
DictionaryVariables
280
     0
  1
STANDARD
  0
DICTIONARYVAR
  5
89
102
{ACAD_REACTORS
330
66
102
}
330
66
100
DictionaryVariables
280
     0
  1
STANDARD
  0
DICTIONARYVAR
  5
11EC
102
{ACAD_REACTORS
330
66
102
}
330
66
100
DictionaryVariables
280
     0
  1
Imperial24
  0
DICTIONARYVAR
  5
11ED
102
{ACAD_REACTORS
330
66
102
}
330
66
100
DictionaryVariables
280
     0
  1
Imperial24
  0
DICTIONARYVAR
  5
67
102
{ACAD_REACTORS
330
66
102
}
330
66
100
DictionaryVariables
280
     0
  1
2
  0
DICTIONARYVAR
  5
6B
102
{ACAD_REACTORS
330
66
102
}
330
66
100
DictionaryVariables
280
     0
  1
1
  0
DICTIONARYVAR
  5
247
102
{ACAD_REACTORS
330
66
102
}
330
66
100
DictionaryVariables
280
     0
  1
0
  0
DICTIONARYVAR
  5
245
102
{ACAD_REACTORS
330
66
102
}
330
66
100
DictionaryVariables
280
     0
  1
2
  0
DICTIONARYVAR
  5
244
102
{ACAD_REACTORS
330
66
102
}
330
66
100
DictionaryVariables
280
     0
  1
1
  0
DICTIONARYVAR
  5
246
102
{ACAD_REACTORS
330
66
102
}
330
66
100
DictionaryVariables
280
     0
  1
127
  0
DICTIONARYVAR
  5
1390
102
{ACAD_REACTORS
330
66
102
}
330
66
100
DictionaryVariables
280
     0
  1
2
  0
DICTIONARY
  5
13D1
330
E58
100
AcDbDictionary
280
     1
281
     1
  3
ACAD_XREC_ROUNDTRIP
360
13D2
  0
DICTIONARY
  5
13D5
330
E62
100
AcDbDictionary
280
     1
281
     1
  3
ACAD_XREC_ROUNDTRIP
360
13D6
  0
DICTIONARY
  5
1396
330
59
100
AcDbDictionary
280
     1
281
     1
  3
ACAD_XREC_ROUNDTRIP
360
1397
  0
DICTIONARY
  5
1398
330
5E
100
AcDbDictionary
280
     1
281
     1
  3
ACAD_XREC_ROUNDTRIP
360
1399
  0
DICTIONARY
  5
1394
330
22
100
AcDbDictionary
280
     1
281
     1
  3
ACAD_XREC_ROUNDTRIP
360
1395
  0
DICTIONARY
  5
944
330
97
100
AcDbDictionary
280
     1
281
     1
  3
ACAD_XREC_ROUNDTRIP
360
945
  0
DICTIONARY
  5
942
330
96
100
AcDbDictionary
280
     1
281
     1
  3
ACAD_XREC_ROUNDTRIP
360
943
  0
DICTIONARY
  5
110
330
98
100
AcDbDictionary
280
     1
281
     1
  3
ACAD_XREC_ROUNDTRIP
360
946
  3
BUMPTILE
360
112
  3
DIFFUSETILE
360
111
  3
OPACITYTILE
360
113
  3
REFLECTIONTILE
360
114
  0
DICTIONARY
  5
13CF
330
E56
100
AcDbDictionary
280
     1
281
     1
  3
ACAD_XREC_ROUNDTRIP
360
13D0
  0
DICTIONARY
  5
13D3
330
E61
100
AcDbDictionary
280
     1
281
     1
  3
ACAD_XREC_ROUNDTRIP
360
13D4
  0
DICTIONARY
  5
104
330
87
100
AcDbDictionary
280
     1
281
     1
  3
ACAD_ROUNDTRIP_2008_TABLESTYLE_CELLSTYLEMAP
360
1391
  3
ACAD_XREC_ROUNDTRIP
360
139A
  0
DICTIONARY
  5
13A5
330
9F
100
AcDbDictionary
280
     1
281
     1
  3
ACAD_XREC_ROUNDTRIP
360
13A6
  0
DICTIONARY
  5
13A9
330
A1
100
AcDbDictionary
280
     1
281
     1
  3
ACAD_XREC_ROUNDTRIP
360
13AA
  0
DICTIONARY
  5
13A7
330
A0
100
AcDbDictionary
280
     1
281
     1
  3
ACAD_XREC_ROUNDTRIP
360
13A8
  0
DICTIONARY
  5
13A3
330
9E
100
AcDbDictionary
280
     1
281
     1
  3
ACAD_XREC_ROUNDTRIP
360
13A4
  0
DICTIONARY
  5
13B1
330
A5
100
AcDbDictionary
280
     1
281
     1
  3
ACAD_XREC_ROUNDTRIP
360
13B2
  0
DICTIONARY
  5
13B9
330
A9
100
AcDbDictionary
280
     1
281
     1
  3
ACAD_XREC_ROUNDTRIP
360
13BA
  0
DICTIONARY
  5
13AB
330
A2
100
AcDbDictionary
280
     1
281
     1
  3
ACAD_XREC_ROUNDTRIP
360
13AC
  0
DICTIONARY
  5
13AF
330
A4
100
AcDbDictionary
280
     1
281
     1
  3
ACAD_XREC_ROUNDTRIP
360
13B0
  0
DICTIONARY
  5
13CD
330
E54
100
AcDbDictionary
280
     1
281
     1
  3
ACAD_XREC_ROUNDTRIP
360
13CE
  0
DICTIONARY
  5
13B7
330
A8
100
AcDbDictionary
280
     1
281
     1
  3
ACAD_XREC_ROUNDTRIP
360
13B8
  0
DICTIONARY
  5
139B
330
9A
100
AcDbDictionary
280
     1
281
     1
  3
ACAD_XREC_ROUNDTRIP
360
139C
  0
DICTIONARY
  5
139D
330
9B
100
AcDbDictionary
280
     1
281
     1
  3
ACAD_XREC_ROUNDTRIP
360
139E
  0
DICTIONARY
  5
139F
330
9C
100
AcDbDictionary
280
     1
281
     1
  3
ACAD_XREC_ROUNDTRIP
360
13A0
  0
DICTIONARY
  5
13A1
330
9D
100
AcDbDictionary
280
     1
281
     1
  3
ACAD_XREC_ROUNDTRIP
360
13A2
  0
DICTIONARY
  5
13BD
330
E4C
100
AcDbDictionary
280
     1
281
     1
  3
ACAD_XREC_ROUNDTRIP
360
13BE
  0
DICTIONARY
  5
13C9
330
E52
100
AcDbDictionary
280
     1
281
     1
  3
ACAD_XREC_ROUNDTRIP
360
13CA
  0
DICTIONARY
  5
13B5
330
A7
100
AcDbDictionary
280
     1
281
     1
  3
ACAD_XREC_ROUNDTRIP
360
13B6
  0
DICTIONARY
  5
13CB
330
E53
100
AcDbDictionary
280
     1
281
     1
  3
ACAD_XREC_ROUNDTRIP
360
13CC
  0
DICTIONARY
  5
13AD
330
A3
100
AcDbDictionary
280
     1
281
     1
  3
ACAD_XREC_ROUNDTRIP
360
13AE
  0
DICTIONARY
  5
13C7
330
E51
100
AcDbDictionary
280
     1
281
     1
  3
ACAD_XREC_ROUNDTRIP
360
13C8
  0
DICTIONARY
  5
13C5
330
E50
100
AcDbDictionary
280
     1
281
     1
  3
ACAD_XREC_ROUNDTRIP
360
13C6
  0
DICTIONARY
  5
13BF
330
E4D
100
AcDbDictionary
280
     1
281
     1
  3
ACAD_XREC_ROUNDTRIP
360
13C0
  0
DICTIONARY
  5
13C1
330
E4E
100
AcDbDictionary
280
     1
281
     1
  3
ACAD_XREC_ROUNDTRIP
360
13C2
  0
DICTIONARY
  5
13B3
330
A6
100
AcDbDictionary
280
     1
281
     1
  3
ACAD_XREC_ROUNDTRIP
360
13B4
  0
DICTIONARY
  5
13BB
330
E4B
100
AcDbDictionary
280
     1
281
     1
  3
ACAD_XREC_ROUNDTRIP
360
13BC
  0
DICTIONARY
  5
13C3
330
E4F
100
AcDbDictionary
280
     1
281
     1
  3
ACAD_XREC_ROUNDTRIP
360
13C4
  0
XRECORD
  5
13D2
102
{ACAD_REACTORS
330
13D1
102
}
330
13D1
100
AcDbXrecord
280
     1
102
DISPLAYNAME
  1
Imperial24
102
FLAGS
 90
        0
  0
XRECORD
  5
13D6
102
{ACAD_REACTORS
330
13D5
102
}
330
13D5
100
AcDbXrecord
280
     1
102
DISPLAYNAME
  1
Metric50
102
FLAGS
 90
        0
  0
XRECORD
  5
1397
102
{ACAD_REACTORS
330
1396
102
}
330
1396
100
AcDbXrecord
280
     1
102
SHADEPLOT
 70
     0
102
SHADEPLOTRESLEVEL
 70
     2
102
SHADEPLOTCUSTOMDPI
 70
   300
  0
XRECORD
  5
1399
102
{ACAD_REACTORS
330
1398
102
}
330
1398
100
AcDbXrecord
280
     1
102
SHADEPLOT
 70
     0
102
SHADEPLOTRESLEVEL
 70
     2
102
SHADEPLOTCUSTOMDPI
 70
   300
  0
XRECORD
  5
1395
102
{ACAD_REACTORS
330
1394
102
}
330
1394
100
AcDbXrecord
280
     1
102
SHADEPLOT
 70
     0
102
SHADEPLOTRESLEVEL
 70
     2
102
SHADEPLOTCUSTOMDPI
 70
   300
  0
XRECORD
  5
945
102
{ACAD_REACTORS
330
944
102
}
330
944
100
AcDbXrecord
280
     1
102
MATERIAL
148
0.0
149
0.0
149
0.0
 93
        0
 94
      127
282
     0
 72
     1
 77
     1
171
     1
175
     1
179
     1
273
     0
  0
XRECORD
  5
943
102
{ACAD_REACTORS
330
942
102
}
330
942
100
AcDbXrecord
280
     1
102
MATERIAL
148
0.0
149
0.0
149
0.0
 93
        0
 94
      127
282
     0
 72
     1
 77
     1
171
     1
175
     1
179
     1
273
     0
  0
XRECORD
  5
946
102
{ACAD_REACTORS
330
110
102
}
330
110
100
AcDbXrecord
280
     1
102
MATERIAL
148
0.0
149
0.0
149
0.0
 93
        0
 94
      127
282
     0
 72
     1
 77
     1
171
     1
175
     1
179
     1
273
     0
  0
XRECORD
  5
112
102
{ACAD_REACTORS
330
110
102
}
330
110
100
AcDbXrecord
280
     1
270
     1
271
     1
  0
XRECORD
  5
111
102
{ACAD_REACTORS
330
110
102
}
330
110
100
AcDbXrecord
280
     1
270
     1
271
     1
  0
XRECORD
  5
113
102
{ACAD_REACTORS
330
110
102
}
330
110
100
AcDbXrecord
280
     1
270
     1
271
     1
  0
XRECORD
  5
114
102
{ACAD_REACTORS
330
110
102
}
330
110
100
AcDbXrecord
280
     1
270
     1
271
     1
  0
XRECORD
  5
13D0
102
{ACAD_REACTORS
330
13CF
102
}
330
13CF
100
AcDbXrecord
280
     1
102
DISPLAYNAME
  1
Imperial24
102
FLAGS
 90
        0
  0
XRECORD
  5
13D4
102
{ACAD_REACTORS
330
13D3
102
}
330
13D3
100
AcDbXrecord
280
     1
102
DISPLAYNAME
  1
Metric50
102
FLAGS
 90
        0
  0
CELLSTYLEMAP
  5
1391
102
{ACAD_REACTORS
330
104
102
}
330
104
100
AcDbCellStyleMap
 90
        3
300
CELLSTYLE
  1
TABLEFORMAT_BEGIN
 90
        5
170
     1
 91
        0
 92
    32768
 62
   257
 93
        1
300
CONTENTFORMAT
  1
CONTENTFORMAT_BEGIN
 90
        0
 91
        0
 92
      512
 93
        0
300

 40
0.0
140
1.0
 94
        5
 62
     0
340
11
144
0.25
309
CONTENTFORMAT_END
171
     1
301
MARGIN
  1
CELLMARGIN_BEGIN
 40
0.06
 40
0.06
 40
0.06
 40
0.06
 40
0.18
 40
0.18
309
CELLMARGIN_END
 94
        6
 95
        1
302
GRIDFORMAT
  1
GRIDFORMAT_BEGIN
 90
        0
 91
        1
 62
     0
 92
       -2
340
0
 93
        0
 40
0.045
309
GRIDFORMAT_END
 95
        2
302
GRIDFORMAT
  1
GRIDFORMAT_BEGIN
 90
        0
 91
        1
 62
     0
 92
       -2
340
0
 93
        0
 40
0.045
309
GRIDFORMAT_END
 95
        4
302
GRIDFORMAT
  1
GRIDFORMAT_BEGIN
 90
        0
 91
        1
 62
     0
 92
       -2
340
0
 93
        0
 40
0.045
309
GRIDFORMAT_END
 95
        8
302
GRIDFORMAT
  1
GRIDFORMAT_BEGIN
 90
        0
 91
        1
 62
     0
 92
       -2
340
0
 93
        0
 40
0.045
309
GRIDFORMAT_END
 95
       16
302
GRIDFORMAT
  1
GRIDFORMAT_BEGIN
 90
        0
 91
        1
 62
     0
 92
       -2
340
0
 93
        0
 40
0.045
309
GRIDFORMAT_END
 95
       32
302
GRIDFORMAT
  1
GRIDFORMAT_BEGIN
 90
        0
 91
        1
 62
     0
 92
       -2
340
0
 93
        0
 40
0.045
309
GRIDFORMAT_END
309
TABLEFORMAT_END
  1
CELLSTYLE_BEGIN
 90
        1
 91
        1
300
_TITLE
309
CELLSTYLE_END
300
CELLSTYLE
  1
TABLEFORMAT_BEGIN
 90
        5
170
     1
 91
        0
 92
        0
 62
   257
 93
        1
300
CONTENTFORMAT
  1
CONTENTFORMAT_BEGIN
 90
        0
 91
        0
 92
      512
 93
        0
300

 40
0.0
140
1.0
 94
        5
 62
     0
340
11
144
0.18
309
CONTENTFORMAT_END
171
     1
301
MARGIN
  1
CELLMARGIN_BEGIN
 40
0.06
 40
0.06
 40
0.06
 40
0.06
 40
0.18
 40
0.18
309
CELLMARGIN_END
 94
        6
 95
        1
302
GRIDFORMAT
  1
GRIDFORMAT_BEGIN
 90
        0
 91
        1
 62
     0
 92
       -2
340
0
 93
        0
 40
0.045
309
GRIDFORMAT_END
 95
        2
302
GRIDFORMAT
  1
GRIDFORMAT_BEGIN
 90
        0
 91
        1
 62
     0
 92
       -2
340
0
 93
        0
 40
0.045
309
GRIDFORMAT_END
 95
        4
302
GRIDFORMAT
  1
GRIDFORMAT_BEGIN
 90
        0
 91
        1
 62
     0
 92
       -2
340
0
 93
        0
 40
0.045
309
GRIDFORMAT_END
 95
        8
302
GRIDFORMAT
  1
GRIDFORMAT_BEGIN
 90
        0
 91
        1
 62
     0
 92
       -2
340
0
 93
        0
 40
0.045
309
GRIDFORMAT_END
 95
       16
302
GRIDFORMAT
  1
GRIDFORMAT_BEGIN
 90
        0
 91
        1
 62
     0
 92
       -2
340
0
 93
        0
 40
0.045
309
GRIDFORMAT_END
 95
       32
302
GRIDFORMAT
  1
GRIDFORMAT_BEGIN
 90
        0
 91
        1
 62
     0
 92
       -2
340
0
 93
        0
 40
0.045
309
GRIDFORMAT_END
309
TABLEFORMAT_END
  1
CELLSTYLE_BEGIN
 90
        2
 91
        1
300
_HEADER
309
CELLSTYLE_END
300
CELLSTYLE
  1
TABLEFORMAT_BEGIN
 90
        5
170
     1
 91
        0
 92
        0
 62
   257
 93
        1
300
CONTENTFORMAT
  1
CONTENTFORMAT_BEGIN
 90
        0
 91
        0
 92
      512
 93
        0
300

 40
0.0
140
1.0
 94
        2
 62
     0
340
11
144
0.18
309
CONTENTFORMAT_END
171
     1
301
MARGIN
  1
CELLMARGIN_BEGIN
 40
0.06
 40
0.06
 40
0.06
 40
0.06
 40
0.18
 40
0.18
309
CELLMARGIN_END
 94
        6
 95
        1
302
GRIDFORMAT
  1
GRIDFORMAT_BEGIN
 90
        0
 91
        1
 62
     0
 92
       -2
340
0
 93
        0
 40
0.045
309
GRIDFORMAT_END
 95
        2
302
GRIDFORMAT
  1
GRIDFORMAT_BEGIN
 90
        0
 91
        1
 62
     0
 92
       -2
340
0
 93
        0
 40
0.045
309
GRIDFORMAT_END
 95
        4
302
GRIDFORMAT
  1
GRIDFORMAT_BEGIN
 90
        0
 91
        1
 62
     0
 92
       -2
340
0
 93
        0
 40
0.045
309
GRIDFORMAT_END
 95
        8
302
GRIDFORMAT
  1
GRIDFORMAT_BEGIN
 90
        0
 91
        1
 62
     0
 92
       -2
340
0
 93
        0
 40
0.045
309
GRIDFORMAT_END
 95
       16
302
GRIDFORMAT
  1
GRIDFORMAT_BEGIN
 90
        0
 91
        1
 62
     0
 92
       -2
340
0
 93
        0
 40
0.045
309
GRIDFORMAT_END
 95
       32
302
GRIDFORMAT
  1
GRIDFORMAT_BEGIN
 90
        0
 91
        1
 62
     0
 92
       -2
340
0
 93
        0
 40
0.045
309
GRIDFORMAT_END
309
TABLEFORMAT_END
  1
CELLSTYLE_BEGIN
 90
        3
 91
        2
300
_DATA
309
CELLSTYLE_END
  0
XRECORD
  5
139A
102
{ACAD_REACTORS
330
104
102
}
330
104
100
AcDbXrecord
280
     1
102
ACAD_ROUNDTRIP_PRE2007_TABLESTYLE
 90
      512
 91
        0
  1

 92
      512
 93
        0
  2

 94
      512
 95
        0
  3

  0
XRECORD
  5
13A6
102
{ACAD_REACTORS
330
13A5
102
}
330
13A5
100
AcDbXrecord
280
     1
102
RTVSPost2010Prop28
280
     1
102
RTVSPost2010PropOp28
 70
     1
102
RTVSPost2010Prop29
280
     1
102
RTVSPost2010PropOp29
 70
     1
102
RTVSPost2010Prop30
280
     0
102
RTVSPost2010PropOp30
 70
     1
102
RTVSPost2010Prop31
280
     0
102
RTVSPost2010PropOp31
 70
     1
102
RTVSPost2010Prop32
280
     0
102
RTVSPost2010PropOp32
 70
     1
102
RTVSPost2010Prop33
280
     0
102
RTVSPost2010PropOp33
 70
     1
102
RTVSPost2010Prop34
280
     0
102
RTVSPost2010PropOp34
 70
     1
102
RTVSPost2010Prop35
280
     0
102
RTVSPost2010PropOp35
 70
     1
102
RTVSPost2010Prop36
280
     0
102
RTVSPost2010PropOp36
 70
     1
102
RTVSPost2010Prop37
 90
       50
102
RTVSPost2010PropOp37
 70
     1
102
RTVSPost2010Prop38
140
0.0
102
RTVSPost2010PropOp38
 70
     1
102
RTVSPost2010Prop39
140
1.0
102
RTVSPost2010PropOp39
 70
     1
102
RTVSPost2010Prop40
 90
        0
102
RTVSPost2010PropOp40
 70
     1
102
RTVSPost2010Prop41ColorIndex
 90
       18
102
RTVSPost2010Prop41ColorRGB
 90
        0
102
RTVSPost2010PropOp41
 70
     1
102
RTVSPost2010Prop42
 90
       50
102
RTVSPost2010PropOp42
 70
     1
102
RTVSPost2010Prop43
 90
        3
102
RTVSPost2010PropOp43
 70
     1
102
RTVSPost2010Prop44ColorIndex
 90
        5
102
RTVSPost2010Prop44ColorRGB
 90
      255
102
RTVSPost2010PropOp44
 70
     1
102
RTVSPost2010Prop45
280
     0
102
RTVSPost2010PropOp45
 70
     1
102
RTVSPost2010Prop46
 90
       50
102
RTVSPost2010PropOp46
 70
     1
102
RTVSPost2010Prop47
 90
       50
102
RTVSPost2010PropOp47
 70
     1
102
RTVSPost2010Prop48
 90
       50
102
RTVSPost2010PropOp48
 70
     1
102
RTVSPost2010Prop49
280
     0
102
RTVSPost2010PropOp49
 70
     1
102
RTVSPost2010Prop50
 90
       50
102
RTVSPost2010PropOp50
 70
     1
102
RTVSPost2010Prop51ColorIndex
 90
      256
102
RTVSPost2010Prop51ColorRGB
 90
-16777216
102
RTVSPost2010PropOp51
 70
     0
102
RTVSPost2010Prop52
140
1.0
102
RTVSPost2010PropOp52
 70
     0
102
RTVSPost2010Prop53
 90
        2
102
RTVSPost2010PropOp53
 70
     1
102
RTVSPost2010Prop54
  1
strokes_ogs.tif
102
RTVSPost2010PropOp54
 70
     1
102
RTVSPost2010Prop55
280
     0
102
RTVSPost2010PropOp55
 70
     1
102
RTVSPost2010Prop56
140
1.0
102
RTVSPost2010PropOp56
 70
     1
102
RTVSPost2010Prop57
140
1.0
102
RTVSPost2010PropOp57
 70
     1
102
RTVSPropertyOp0
 70
     1
102
RTVSPropertyOp1
 70
     1
102
RTVSPropertyOp2
 70
     1
102
RTVSPropertyOp3
 70
     1
102
RTVSPropertyOp4
 70
     1
102
RTVSPropertyOp5
 70
     1
102
RTVSPropertyOp6
 70
     1
102
RTVSPropertyOp7
 70
     1
102
RTVSPropertyOp8
 70
     1
102
RTVSPropertyOp9
 70
     1
102
RTVSPropertyOp10
 70
     1
102
RTVSPropertyOp11
 70
     1
102
RTVSPropertyOp12
 70
     1
102
RTVSPropertyOp13
 70
     1
102
RTVSPropertyOp14
 70
     1
102
RTVSPropertyOp15
 70
     1
102
RTVSPropertyOp16
 70
     1
102
RTVSPropertyOp17
 70
     1
102
RTVSPropertyOp18
 70
     1
102
RTVSPropertyOp19
 70
     1
102
RTVSPropertyOp20
 70
     1
102
RTVSPropertyOp21
 70
     1
102
RTVSPropertyOp22
 70
     1
102
RTVSPropertyOp23
 70
     1
102
RTVSPropertyOp24
 70
     1
102
RTVSPropertyOp25
 70
     1
102
RTVSPropertyOp26
 70
     1
102
RTVSPropertyOp27
 70
     1
102
RTVSPropertyOp28
 70
     1
102
RTVSPropertyOp29
 70
     1
102
RTVSPropertyOp30
 70
     1
102
RTVSPropertyOp31
 70
     1
102
RTVSPropertyOp32
 70
     1
102
RTVSPropertyOp33
 70
     1
102
RTVSPropertyOp34
 70
     1
102
RTVSPropertyOp35
 70
     1
102
RTVSPropertyOp36
 70
     1
102
RTVSPropertyOp37
 70
     1
102
RTVSPropertyOp38
 70
     1
102
RTVSPropertyOp39
 70
     1
102
RTVSPropertyOp40
 70
     1
102
RTVSPropertyOp41
 70
     1
102
RTVSPropertyOp42
 70
     1
102
RTVSPropertyOp43
 70
     1
102
RTVSPropertyOp44
 70
     1
102
RTVSPropertyOp45
 70
     1
102
RTVSPropertyOp46
 70
     1
102
RTVSPropertyOp47
 70
     1
102
RTVSPropertyOp48
 70
     1
102
RTVSPropertyOp49
 70
     1
102
RTVSPropertyOp50
 70
     1
102
RTVSPropertyOp51
 70
     0
102
RTVSPropertyOp52
 70
     0
102
RTVSPropertyOp53
 70
     1
102
RTVSPropertyOp54
 70
     1
102
RTVSPropertyOp55
 70
     1
102
RTVSPropertyOp56
 70
     1
102
RTVSPropertyOp57
 70
     1
102
RTVSPropertyOp58
 70
     1
102
RTVSPropertyOp59
 70
     1
102
RTVSPropertyOp60
 70
     1
102
RTVSPropertyOp61
 70
     1
102
RTVSPropertyOp62
 70
     1
  0
XRECORD
  5
13AA
102
{ACAD_REACTORS
330
13A9
102
}
330
13A9
100
AcDbXrecord
280
     1
102
RTVSPost2010Prop28
280
     0
102
RTVSPost2010PropOp28
 70
     1
102
RTVSPost2010Prop29
280
     1
102
RTVSPost2010PropOp29
 70
     1
102
RTVSPost2010Prop30
280
     1
102
RTVSPost2010PropOp30
 70
     1
102
RTVSPost2010Prop31
280
     0
102
RTVSPost2010PropOp31
 70
     1
102
RTVSPost2010Prop32
280
     0
102
RTVSPost2010PropOp32
 70
     1
102
RTVSPost2010Prop33
280
     0
102
RTVSPost2010PropOp33
 70
     1
102
RTVSPost2010Prop34
280
     0
102
RTVSPost2010PropOp34
 70
     1
102
RTVSPost2010Prop35
280
     0
102
RTVSPost2010PropOp35
 70
     1
102
RTVSPost2010Prop36
280
     0
102
RTVSPost2010PropOp36
 70
     1
102
RTVSPost2010Prop37
 90
       50
102
RTVSPost2010PropOp37
 70
     1
102
RTVSPost2010Prop38
140
0.0
102
RTVSPost2010PropOp38
 70
     1
102
RTVSPost2010Prop39
140
1.0
102
RTVSPost2010PropOp39
 70
     1
102
RTVSPost2010Prop40
 90
        0
102
RTVSPost2010PropOp40
 70
     1
102
RTVSPost2010Prop41ColorIndex
 90
       18
102
RTVSPost2010Prop41ColorRGB
 90
        0
102
RTVSPost2010PropOp41
 70
     1
102
RTVSPost2010Prop42
 90
       50
102
RTVSPost2010PropOp42
 70
     1
102
RTVSPost2010Prop43
 90
        3
102
RTVSPost2010PropOp43
 70
     1
102
RTVSPost2010Prop44ColorIndex
 90
        5
102
RTVSPost2010Prop44ColorRGB
 90
      255
102
RTVSPost2010PropOp44
 70
     1
102
RTVSPost2010Prop45
280
     0
102
RTVSPost2010PropOp45
 70
     1
102
RTVSPost2010Prop46
 90
       50
102
RTVSPost2010PropOp46
 70
     1
102
RTVSPost2010Prop47
 90
       50
102
RTVSPost2010PropOp47
 70
     1
102
RTVSPost2010Prop48
 90
       50
102
RTVSPost2010PropOp48
 70
     1
102
RTVSPost2010Prop49
280
     0
102
RTVSPost2010PropOp49
 70
     1
102
RTVSPost2010Prop50
 90
       50
102
RTVSPost2010PropOp50
 70
     1
102
RTVSPost2010Prop51ColorIndex
 90
      256
102
RTVSPost2010Prop51ColorRGB
 90
-16777216
102
RTVSPost2010PropOp51
 70
     0
102
RTVSPost2010Prop52
140
1.0
102
RTVSPost2010PropOp52
 70
     0
102
RTVSPost2010Prop53
 90
        2
102
RTVSPost2010PropOp53
 70
     1
102
RTVSPost2010Prop54
  1
strokes_ogs.tif
102
RTVSPost2010PropOp54
 70
     1
102
RTVSPost2010Prop55
280
     0
102
RTVSPost2010PropOp55
 70
     1
102
RTVSPost2010Prop56
140
1.0
102
RTVSPost2010PropOp56
 70
     1
102
RTVSPost2010Prop57
140
1.0
102
RTVSPost2010PropOp57
 70
     1
102
RTVSPropertyOp0
 70
     1
102
RTVSPropertyOp1
 70
     1
102
RTVSPropertyOp2
 70
     1
102
RTVSPropertyOp3
 70
     1
102
RTVSPropertyOp4
 70
     1
102
RTVSPropertyOp5
 70
     1
102
RTVSPropertyOp6
 70
     1
102
RTVSPropertyOp7
 70
     1
102
RTVSPropertyOp8
 70
     1
102
RTVSPropertyOp9
 70
     1
102
RTVSPropertyOp10
 70
     1
102
RTVSPropertyOp11
 70
     1
102
RTVSPropertyOp12
 70
     1
102
RTVSPropertyOp13
 70
     1
102
RTVSPropertyOp14
 70
     1
102
RTVSPropertyOp15
 70
     1
102
RTVSPropertyOp16
 70
     1
102
RTVSPropertyOp17
 70
     1
102
RTVSPropertyOp18
 70
     1
102
RTVSPropertyOp19
 70
     1
102
RTVSPropertyOp20
 70
     1
102
RTVSPropertyOp21
 70
     1
102
RTVSPropertyOp22
 70
     1
102
RTVSPropertyOp23
 70
     1
102
RTVSPropertyOp24
 70
     1
102
RTVSPropertyOp25
 70
     1
102
RTVSPropertyOp26
 70
     1
102
RTVSPropertyOp27
 70
     1
102
RTVSPropertyOp28
 70
     1
102
RTVSPropertyOp29
 70
     1
102
RTVSPropertyOp30
 70
     1
102
RTVSPropertyOp31
 70
     1
102
RTVSPropertyOp32
 70
     1
102
RTVSPropertyOp33
 70
     1
102
RTVSPropertyOp34
 70
     1
102
RTVSPropertyOp35
 70
     1
102
RTVSPropertyOp36
 70
     1
102
RTVSPropertyOp37
 70
     1
102
RTVSPropertyOp38
 70
     1
102
RTVSPropertyOp39
 70
     1
102
RTVSPropertyOp40
 70
     1
102
RTVSPropertyOp41
 70
     1
102
RTVSPropertyOp42
 70
     1
102
RTVSPropertyOp43
 70
     1
102
RTVSPropertyOp44
 70
     1
102
RTVSPropertyOp45
 70
     1
102
RTVSPropertyOp46
 70
     1
102
RTVSPropertyOp47
 70
     1
102
RTVSPropertyOp48
 70
     1
102
RTVSPropertyOp49
 70
     1
102
RTVSPropertyOp50
 70
     1
102
RTVSPropertyOp51
 70
     0
102
RTVSPropertyOp52
 70
     0
102
RTVSPropertyOp53
 70
     1
102
RTVSPropertyOp54
 70
     1
102
RTVSPropertyOp55
 70
     1
102
RTVSPropertyOp56
 70
     1
102
RTVSPropertyOp57
 70
     1
102
RTVSPropertyOp58
 70
     1
102
RTVSPropertyOp59
 70
     1
102
RTVSPropertyOp60
 70
     1
102
RTVSPropertyOp61
 70
     1
102
RTVSPropertyOp62
 70
     1
  0
XRECORD
  5
13A8
102
{ACAD_REACTORS
330
13A7
102
}
330
13A7
100
AcDbXrecord
280
     1
102
RTVSPost2010Prop28
280
     0
102
RTVSPost2010PropOp28
 70
     1
102
RTVSPost2010Prop29
280
     1
102
RTVSPost2010PropOp29
 70
     1
102
RTVSPost2010Prop30
280
     1
102
RTVSPost2010PropOp30
 70
     1
102
RTVSPost2010Prop31
280
     0
102
RTVSPost2010PropOp31
 70
     1
102
RTVSPost2010Prop32
280
     0
102
RTVSPost2010PropOp32
 70
     1
102
RTVSPost2010Prop33
280
     0
102
RTVSPost2010PropOp33
 70
     1
102
RTVSPost2010Prop34
280
     0
102
RTVSPost2010PropOp34
 70
     1
102
RTVSPost2010Prop35
280
     0
102
RTVSPost2010PropOp35
 70
     1
102
RTVSPost2010Prop36
280
     0
102
RTVSPost2010PropOp36
 70
     1
102
RTVSPost2010Prop37
 90
       50
102
RTVSPost2010PropOp37
 70
     1
102
RTVSPost2010Prop38
140
0.0
102
RTVSPost2010PropOp38
 70
     1
102
RTVSPost2010Prop39
140
1.0
102
RTVSPost2010PropOp39
 70
     1
102
RTVSPost2010Prop40
 90
        0
102
RTVSPost2010PropOp40
 70
     1
102
RTVSPost2010Prop41ColorIndex
 90
       18
102
RTVSPost2010Prop41ColorRGB
 90
        0
102
RTVSPost2010PropOp41
 70
     1
102
RTVSPost2010Prop42
 90
       50
102
RTVSPost2010PropOp42
 70
     1
102
RTVSPost2010Prop43
 90
        3
102
RTVSPost2010PropOp43
 70
     1
102
RTVSPost2010Prop44ColorIndex
 90
        5
102
RTVSPost2010Prop44ColorRGB
 90
      255
102
RTVSPost2010PropOp44
 70
     1
102
RTVSPost2010Prop45
280
     0
102
RTVSPost2010PropOp45
 70
     1
102
RTVSPost2010Prop46
 90
       50
102
RTVSPost2010PropOp46
 70
     1
102
RTVSPost2010Prop47
 90
       50
102
RTVSPost2010PropOp47
 70
     1
102
RTVSPost2010Prop48
 90
       50
102
RTVSPost2010PropOp48
 70
     1
102
RTVSPost2010Prop49
280
     0
102
RTVSPost2010PropOp49
 70
     1
102
RTVSPost2010Prop50
 90
       50
102
RTVSPost2010PropOp50
 70
     1
102
RTVSPost2010Prop51ColorIndex
 90
      256
102
RTVSPost2010Prop51ColorRGB
 90
-16777216
102
RTVSPost2010PropOp51
 70
     0
102
RTVSPost2010Prop52
140
1.0
102
RTVSPost2010PropOp52
 70
     0
102
RTVSPost2010Prop53
 90
        2
102
RTVSPost2010PropOp53
 70
     1
102
RTVSPost2010Prop54
  1
strokes_ogs.tif
102
RTVSPost2010PropOp54
 70
     1
102
RTVSPost2010Prop55
280
     0
102
RTVSPost2010PropOp55
 70
     1
102
RTVSPost2010Prop56
140
1.0
102
RTVSPost2010PropOp56
 70
     1
102
RTVSPost2010Prop57
140
1.0
102
RTVSPost2010PropOp57
 70
     1
102
RTVSPropertyOp0
 70
     1
102
RTVSPropertyOp1
 70
     1
102
RTVSPropertyOp2
 70
     1
102
RTVSPropertyOp3
 70
     1
102
RTVSPropertyOp4
 70
     1
102
RTVSPropertyOp5
 70
     1
102
RTVSPropertyOp6
 70
     1
102
RTVSPropertyOp7
 70
     1
102
RTVSPropertyOp8
 70
     1
102
RTVSPropertyOp9
 70
     1
102
RTVSPropertyOp10
 70
     1
102
RTVSPropertyOp11
 70
     1
102
RTVSPropertyOp12
 70
     1
102
RTVSPropertyOp13
 70
     1
102
RTVSPropertyOp14
 70
     1
102
RTVSPropertyOp15
 70
     1
102
RTVSPropertyOp16
 70
     1
102
RTVSPropertyOp17
 70
     1
102
RTVSPropertyOp18
 70
     1
102
RTVSPropertyOp19
 70
     1
102
RTVSPropertyOp20
 70
     1
102
RTVSPropertyOp21
 70
     1
102
RTVSPropertyOp22
 70
     1
102
RTVSPropertyOp23
 70
     1
102
RTVSPropertyOp24
 70
     1
102
RTVSPropertyOp25
 70
     1
102
RTVSPropertyOp26
 70
     1
102
RTVSPropertyOp27
 70
     1
102
RTVSPropertyOp28
 70
     1
102
RTVSPropertyOp29
 70
     1
102
RTVSPropertyOp30
 70
     1
102
RTVSPropertyOp31
 70
     1
102
RTVSPropertyOp32
 70
     1
102
RTVSPropertyOp33
 70
     1
102
RTVSPropertyOp34
 70
     1
102
RTVSPropertyOp35
 70
     1
102
RTVSPropertyOp36
 70
     1
102
RTVSPropertyOp37
 70
     1
102
RTVSPropertyOp38
 70
     1
102
RTVSPropertyOp39
 70
     1
102
RTVSPropertyOp40
 70
     1
102
RTVSPropertyOp41
 70
     1
102
RTVSPropertyOp42
 70
     1
102
RTVSPropertyOp43
 70
     1
102
RTVSPropertyOp44
 70
     1
102
RTVSPropertyOp45
 70
     1
102
RTVSPropertyOp46
 70
     1
102
RTVSPropertyOp47
 70
     1
102
RTVSPropertyOp48
 70
     1
102
RTVSPropertyOp49
 70
     1
102
RTVSPropertyOp50
 70
     1
102
RTVSPropertyOp51
 70
     0
102
RTVSPropertyOp52
 70
     0
102
RTVSPropertyOp53
 70
     1
102
RTVSPropertyOp54
 70
     1
102
RTVSPropertyOp55
 70
     1
102
RTVSPropertyOp56
 70
     1
102
RTVSPropertyOp57
 70
     1
102
RTVSPropertyOp58
 70
     1
102
RTVSPropertyOp59
 70
     1
102
RTVSPropertyOp60
 70
     1
102
RTVSPropertyOp61
 70
     1
102
RTVSPropertyOp62
 70
     1
  0
XRECORD
  5
13A4
102
{ACAD_REACTORS
330
13A3
102
}
330
13A3
100
AcDbXrecord
280
     1
102
RTVSPost2010Prop28
280
     0
102
RTVSPost2010PropOp28
 70
     1
102
RTVSPost2010Prop29
280
     1
102
RTVSPost2010PropOp29
 70
     1
102
RTVSPost2010Prop30
280
     1
102
RTVSPost2010PropOp30
 70
     1
102
RTVSPost2010Prop31
280
     0
102
RTVSPost2010PropOp31
 70
     1
102
RTVSPost2010Prop32
280
     0
102
RTVSPost2010PropOp32
 70
     1
102
RTVSPost2010Prop33
280
     0
102
RTVSPost2010PropOp33
 70
     1
102
RTVSPost2010Prop34
280
     0
102
RTVSPost2010PropOp34
 70
     1
102
RTVSPost2010Prop35
280
     0
102
RTVSPost2010PropOp35
 70
     1
102
RTVSPost2010Prop36
280
     0
102
RTVSPost2010PropOp36
 70
     1
102
RTVSPost2010Prop37
 90
       50
102
RTVSPost2010PropOp37
 70
     1
102
RTVSPost2010Prop38
140
0.0
102
RTVSPost2010PropOp38
 70
     1
102
RTVSPost2010Prop39
140
1.0
102
RTVSPost2010PropOp39
 70
     1
102
RTVSPost2010Prop40
 90
        0
102
RTVSPost2010PropOp40
 70
     1
102
RTVSPost2010Prop41ColorIndex
 90
       18
102
RTVSPost2010Prop41ColorRGB
 90
        0
102
RTVSPost2010PropOp41
 70
     1
102
RTVSPost2010Prop42
 90
       50
102
RTVSPost2010PropOp42
 70
     1
102
RTVSPost2010Prop43
 90
        3
102
RTVSPost2010PropOp43
 70
     1
102
RTVSPost2010Prop44ColorIndex
 90
        5
102
RTVSPost2010Prop44ColorRGB
 90
      255
102
RTVSPost2010PropOp44
 70
     1
102
RTVSPost2010Prop45
280
     0
102
RTVSPost2010PropOp45
 70
     1
102
RTVSPost2010Prop46
 90
       50
102
RTVSPost2010PropOp46
 70
     1
102
RTVSPost2010Prop47
 90
       50
102
RTVSPost2010PropOp47
 70
     1
102
RTVSPost2010Prop48
 90
       50
102
RTVSPost2010PropOp48
 70
     1
102
RTVSPost2010Prop49
280
     0
102
RTVSPost2010PropOp49
 70
     1
102
RTVSPost2010Prop50
 90
       50
102
RTVSPost2010PropOp50
 70
     1
102
RTVSPost2010Prop51ColorIndex
 90
      256
102
RTVSPost2010Prop51ColorRGB
 90
-16777216
102
RTVSPost2010PropOp51
 70
     0
102
RTVSPost2010Prop52
140
1.0
102
RTVSPost2010PropOp52
 70
     0
102
RTVSPost2010Prop53
 90
        2
102
RTVSPost2010PropOp53
 70
     1
102
RTVSPost2010Prop54
  1
strokes_ogs.tif
102
RTVSPost2010PropOp54
 70
     1
102
RTVSPost2010Prop55
280
     0
102
RTVSPost2010PropOp55
 70
     1
102
RTVSPost2010Prop56
140
1.0
102
RTVSPost2010PropOp56
 70
     1
102
RTVSPost2010Prop57
140
1.0
102
RTVSPost2010PropOp57
 70
     1
102
RTVSPropertyOp0
 70
     1
102
RTVSPropertyOp1
 70
     1
102
RTVSPropertyOp2
 70
     1
102
RTVSPropertyOp3
 70
     1
102
RTVSPropertyOp4
 70
     1
102
RTVSPropertyOp5
 70
     1
102
RTVSPropertyOp6
 70
     1
102
RTVSPropertyOp7
 70
     1
102
RTVSPropertyOp8
 70
     1
102
RTVSPropertyOp9
 70
     1
102
RTVSPropertyOp10
 70
     1
102
RTVSPropertyOp11
 70
     1
102
RTVSPropertyOp12
 70
     1
102
RTVSPropertyOp13
 70
     1
102
RTVSPropertyOp14
 70
     1
102
RTVSPropertyOp15
 70
     1
102
RTVSPropertyOp16
 70
     1
102
RTVSPropertyOp17
 70
     1
102
RTVSPropertyOp18
 70
     1
102
RTVSPropertyOp19
 70
     1
102
RTVSPropertyOp20
 70
     1
102
RTVSPropertyOp21
 70
     1
102
RTVSPropertyOp22
 70
     1
102
RTVSPropertyOp23
 70
     1
102
RTVSPropertyOp24
 70
     1
102
RTVSPropertyOp25
 70
     1
102
RTVSPropertyOp26
 70
     1
102
RTVSPropertyOp27
 70
     1
102
RTVSPropertyOp28
 70
     1
102
RTVSPropertyOp29
 70
     1
102
RTVSPropertyOp30
 70
     1
102
RTVSPropertyOp31
 70
     1
102
RTVSPropertyOp32
 70
     1
102
RTVSPropertyOp33
 70
     1
102
RTVSPropertyOp34
 70
     1
102
RTVSPropertyOp35
 70
     1
102
RTVSPropertyOp36
 70
     1
102
RTVSPropertyOp37
 70
     1
102
RTVSPropertyOp38
 70
     1
102
RTVSPropertyOp39
 70
     1
102
RTVSPropertyOp40
 70
     1
102
RTVSPropertyOp41
 70
     1
102
RTVSPropertyOp42
 70
     1
102
RTVSPropertyOp43
 70
     1
102
RTVSPropertyOp44
 70
     1
102
RTVSPropertyOp45
 70
     1
102
RTVSPropertyOp46
 70
     1
102
RTVSPropertyOp47
 70
     1
102
RTVSPropertyOp48
 70
     1
102
RTVSPropertyOp49
 70
     1
102
RTVSPropertyOp50
 70
     1
102
RTVSPropertyOp51
 70
     0
102
RTVSPropertyOp52
 70
     0
102
RTVSPropertyOp53
 70
     1
102
RTVSPropertyOp54
 70
     1
102
RTVSPropertyOp55
 70
     1
102
RTVSPropertyOp56
 70
     1
102
RTVSPropertyOp57
 70
     1
102
RTVSPropertyOp58
 70
     1
102
RTVSPropertyOp59
 70
     1
102
RTVSPropertyOp60
 70
     1
102
RTVSPropertyOp61
 70
     1
102
RTVSPropertyOp62
 70
     1
  0
XRECORD
  5
13B2
102
{ACAD_REACTORS
330
13B1
102
}
330
13B1
100
AcDbXrecord
280
     1
102
RTVSPost2010Prop28
280
     0
102
RTVSPost2010PropOp28
 70
     1
102
RTVSPost2010Prop29
280
     1
102
RTVSPost2010PropOp29
 70
     1
102
RTVSPost2010Prop30
280
     1
102
RTVSPost2010PropOp30
 70
     1
102
RTVSPost2010Prop31
280
     0
102
RTVSPost2010PropOp31
 70
     1
102
RTVSPost2010Prop32
280
     0
102
RTVSPost2010PropOp32
 70
     1
102
RTVSPost2010Prop33
280
     0
102
RTVSPost2010PropOp33
 70
     1
102
RTVSPost2010Prop34
280
     0
102
RTVSPost2010PropOp34
 70
     1
102
RTVSPost2010Prop35
280
     0
102
RTVSPost2010PropOp35
 70
     1
102
RTVSPost2010Prop36
280
     0
102
RTVSPost2010PropOp36
 70
     1
102
RTVSPost2010Prop37
 90
       50
102
RTVSPost2010PropOp37
 70
     1
102
RTVSPost2010Prop38
140
0.0
102
RTVSPost2010PropOp38
 70
     1
102
RTVSPost2010Prop39
140
1.0
102
RTVSPost2010PropOp39
 70
     1
102
RTVSPost2010Prop40
 90
        0
102
RTVSPost2010PropOp40
 70
     1
102
RTVSPost2010Prop41ColorIndex
 90
       18
102
RTVSPost2010Prop41ColorRGB
 90
        0
102
RTVSPost2010PropOp41
 70
     1
102
RTVSPost2010Prop42
 90
       50
102
RTVSPost2010PropOp42
 70
     1
102
RTVSPost2010Prop43
 90
        3
102
RTVSPost2010PropOp43
 70
     1
102
RTVSPost2010Prop44ColorIndex
 90
        5
102
RTVSPost2010Prop44ColorRGB
 90
      255
102
RTVSPost2010PropOp44
 70
     1
102
RTVSPost2010Prop45
280
     0
102
RTVSPost2010PropOp45
 70
     1
102
RTVSPost2010Prop46
 90
       50
102
RTVSPost2010PropOp46
 70
     1
102
RTVSPost2010Prop47
 90
       50
102
RTVSPost2010PropOp47
 70
     1
102
RTVSPost2010Prop48
 90
       50
102
RTVSPost2010PropOp48
 70
     1
102
RTVSPost2010Prop49
280
     0
102
RTVSPost2010PropOp49
 70
     1
102
RTVSPost2010Prop50
 90
       50
102
RTVSPost2010PropOp50
 70
     1
102
RTVSPost2010Prop51ColorIndex
 90
      256
102
RTVSPost2010Prop51ColorRGB
 90
-16777216
102
RTVSPost2010PropOp51
 70
     0
102
RTVSPost2010Prop52
140
1.0
102
RTVSPost2010PropOp52
 70
     0
102
RTVSPost2010Prop53
 90
        2
102
RTVSPost2010PropOp53
 70
     1
102
RTVSPost2010Prop54
  1
strokes_ogs.tif
102
RTVSPost2010PropOp54
 70
     1
102
RTVSPost2010Prop55
280
     0
102
RTVSPost2010PropOp55
 70
     1
102
RTVSPost2010Prop56
140
1.0
102
RTVSPost2010PropOp56
 70
     1
102
RTVSPost2010Prop57
140
1.0
102
RTVSPost2010PropOp57
 70
     1
102
RTVSPropertyOp0
 70
     1
102
RTVSPropertyOp1
 70
     1
102
RTVSPropertyOp2
 70
     1
102
RTVSPropertyOp3
 70
     1
102
RTVSPropertyOp4
 70
     1
102
RTVSPropertyOp5
 70
     1
102
RTVSPropertyOp6
 70
     1
102
RTVSPropertyOp7
 70
     1
102
RTVSPropertyOp8
 70
     1
102
RTVSPropertyOp9
 70
     1
102
RTVSPropertyOp10
 70
     1
102
RTVSPropertyOp11
 70
     1
102
RTVSPropertyOp12
 70
     1
102
RTVSPropertyOp13
 70
     1
102
RTVSPropertyOp14
 70
     1
102
RTVSPropertyOp15
 70
     1
102
RTVSPropertyOp16
 70
     1
102
RTVSPropertyOp17
 70
     1
102
RTVSPropertyOp18
 70
     1
102
RTVSPropertyOp19
 70
     1
102
RTVSPropertyOp20
 70
     1
102
RTVSPropertyOp21
 70
     1
102
RTVSPropertyOp22
 70
     1
102
RTVSPropertyOp23
 70
     1
102
RTVSPropertyOp24
 70
     1
102
RTVSPropertyOp25
 70
     1
102
RTVSPropertyOp26
 70
     1
102
RTVSPropertyOp27
 70
     1
102
RTVSPropertyOp28
 70
     1
102
RTVSPropertyOp29
 70
     1
102
RTVSPropertyOp30
 70
     1
102
RTVSPropertyOp31
 70
     1
102
RTVSPropertyOp32
 70
     1
102
RTVSPropertyOp33
 70
     1
102
RTVSPropertyOp34
 70
     1
102
RTVSPropertyOp35
 70
     1
102
RTVSPropertyOp36
 70
     1
102
RTVSPropertyOp37
 70
     1
102
RTVSPropertyOp38
 70
     1
102
RTVSPropertyOp39
 70
     1
102
RTVSPropertyOp40
 70
     1
102
RTVSPropertyOp41
 70
     1
102
RTVSPropertyOp42
 70
     1
102
RTVSPropertyOp43
 70
     1
102
RTVSPropertyOp44
 70
     1
102
RTVSPropertyOp45
 70
     1
102
RTVSPropertyOp46
 70
     1
102
RTVSPropertyOp47
 70
     1
102
RTVSPropertyOp48
 70
     1
102
RTVSPropertyOp49
 70
     1
102
RTVSPropertyOp50
 70
     1
102
RTVSPropertyOp51
 70
     0
102
RTVSPropertyOp52
 70
     0
102
RTVSPropertyOp53
 70
     1
102
RTVSPropertyOp54
 70
     1
102
RTVSPropertyOp55
 70
     1
102
RTVSPropertyOp56
 70
     1
102
RTVSPropertyOp57
 70
     1
102
RTVSPropertyOp58
 70
     1
102
RTVSPropertyOp59
 70
     1
102
RTVSPropertyOp60
 70
     1
102
RTVSPropertyOp61
 70
     1
102
RTVSPropertyOp62
 70
     1
  0
XRECORD
  5
13BA
102
{ACAD_REACTORS
330
13B9
102
}
330
13B9
100
AcDbXrecord
280
     1
102
RTVSPost2010Prop28
280
     0
102
RTVSPost2010PropOp28
 70
     1
102
RTVSPost2010Prop29
280
     1
102
RTVSPost2010PropOp29
 70
     1
102
RTVSPost2010Prop30
280
     1
102
RTVSPost2010PropOp30
 70
     1
102
RTVSPost2010Prop31
280
     0
102
RTVSPost2010PropOp31
 70
     1
102
RTVSPost2010Prop32
280
     0
102
RTVSPost2010PropOp32
 70
     1
102
RTVSPost2010Prop33
280
     0
102
RTVSPost2010PropOp33
 70
     1
102
RTVSPost2010Prop34
280
     0
102
RTVSPost2010PropOp34
 70
     1
102
RTVSPost2010Prop35
280
     0
102
RTVSPost2010PropOp35
 70
     1
102
RTVSPost2010Prop36
280
     0
102
RTVSPost2010PropOp36
 70
     1
102
RTVSPost2010Prop37
 90
       50
102
RTVSPost2010PropOp37
 70
     1
102
RTVSPost2010Prop38
140
0.0
102
RTVSPost2010PropOp38
 70
     1
102
RTVSPost2010Prop39
140
1.0
102
RTVSPost2010PropOp39
 70
     1
102
RTVSPost2010Prop40
 90
        0
102
RTVSPost2010PropOp40
 70
     1
102
RTVSPost2010Prop41ColorIndex
 90
       18
102
RTVSPost2010Prop41ColorRGB
 90
        0
102
RTVSPost2010PropOp41
 70
     1
102
RTVSPost2010Prop42
 90
       50
102
RTVSPost2010PropOp42
 70
     1
102
RTVSPost2010Prop43
 90
        3
102
RTVSPost2010PropOp43
 70
     1
102
RTVSPost2010Prop44ColorIndex
 90
        5
102
RTVSPost2010Prop44ColorRGB
 90
      255
102
RTVSPost2010PropOp44
 70
     1
102
RTVSPost2010Prop45
280
     0
102
RTVSPost2010PropOp45
 70
     1
102
RTVSPost2010Prop46
 90
       50
102
RTVSPost2010PropOp46
 70
     1
102
RTVSPost2010Prop47
 90
       50
102
RTVSPost2010PropOp47
 70
     1
102
RTVSPost2010Prop48
 90
       50
102
RTVSPost2010PropOp48
 70
     1
102
RTVSPost2010Prop49
280
     0
102
RTVSPost2010PropOp49
 70
     1
102
RTVSPost2010Prop50
 90
       50
102
RTVSPost2010PropOp50
 70
     1
102
RTVSPost2010Prop51ColorIndex
 90
      256
102
RTVSPost2010Prop51ColorRGB
 90
-16777216
102
RTVSPost2010PropOp51
 70
     0
102
RTVSPost2010Prop52
140
1.0
102
RTVSPost2010PropOp52
 70
     0
102
RTVSPost2010Prop53
 90
        2
102
RTVSPost2010PropOp53
 70
     1
102
RTVSPost2010Prop54
  1
strokes_ogs.tif
102
RTVSPost2010PropOp54
 70
     1
102
RTVSPost2010Prop55
280
     0
102
RTVSPost2010PropOp55
 70
     1
102
RTVSPost2010Prop56
140
1.0
102
RTVSPost2010PropOp56
 70
     1
102
RTVSPost2010Prop57
140
1.0
102
RTVSPost2010PropOp57
 70
     1
102
RTVSPropertyOp0
 70
     1
102
RTVSPropertyOp1
 70
     1
102
RTVSPropertyOp2
 70
     1
102
RTVSPropertyOp3
 70
     1
102
RTVSPropertyOp4
 70
     1
102
RTVSPropertyOp5
 70
     1
102
RTVSPropertyOp6
 70
     1
102
RTVSPropertyOp7
 70
     1
102
RTVSPropertyOp8
 70
     1
102
RTVSPropertyOp9
 70
     1
102
RTVSPropertyOp10
 70
     1
102
RTVSPropertyOp11
 70
     1
102
RTVSPropertyOp12
 70
     1
102
RTVSPropertyOp13
 70
     1
102
RTVSPropertyOp14
 70
     1
102
RTVSPropertyOp15
 70
     1
102
RTVSPropertyOp16
 70
     1
102
RTVSPropertyOp17
 70
     1
102
RTVSPropertyOp18
 70
     1
102
RTVSPropertyOp19
 70
     1
102
RTVSPropertyOp20
 70
     1
102
RTVSPropertyOp21
 70
     1
102
RTVSPropertyOp22
 70
     1
102
RTVSPropertyOp23
 70
     1
102
RTVSPropertyOp24
 70
     1
102
RTVSPropertyOp25
 70
     1
102
RTVSPropertyOp26
 70
     1
102
RTVSPropertyOp27
 70
     1
102
RTVSPropertyOp28
 70
     1
102
RTVSPropertyOp29
 70
     1
102
RTVSPropertyOp30
 70
     1
102
RTVSPropertyOp31
 70
     1
102
RTVSPropertyOp32
 70
     1
102
RTVSPropertyOp33
 70
     1
102
RTVSPropertyOp34
 70
     1
102
RTVSPropertyOp35
 70
     1
102
RTVSPropertyOp36
 70
     1
102
RTVSPropertyOp37
 70
     1
102
RTVSPropertyOp38
 70
     1
102
RTVSPropertyOp39
 70
     1
102
RTVSPropertyOp40
 70
     1
102
RTVSPropertyOp41
 70
     1
102
RTVSPropertyOp42
 70
     1
102
RTVSPropertyOp43
 70
     1
102
RTVSPropertyOp44
 70
     1
102
RTVSPropertyOp45
 70
     1
102
RTVSPropertyOp46
 70
     1
102
RTVSPropertyOp47
 70
     1
102
RTVSPropertyOp48
 70
     1
102
RTVSPropertyOp49
 70
     1
102
RTVSPropertyOp50
 70
     1
102
RTVSPropertyOp51
 70
     0
102
RTVSPropertyOp52
 70
     0
102
RTVSPropertyOp53
 70
     1
102
RTVSPropertyOp54
 70
     1
102
RTVSPropertyOp55
 70
     1
102
RTVSPropertyOp56
 70
     1
102
RTVSPropertyOp57
 70
     1
102
RTVSPropertyOp58
 70
     1
102
RTVSPropertyOp59
 70
     1
102
RTVSPropertyOp60
 70
     1
102
RTVSPropertyOp61
 70
     1
102
RTVSPropertyOp62
 70
     1
  0
XRECORD
  5
13AC
102
{ACAD_REACTORS
330
13AB
102
}
330
13AB
100
AcDbXrecord
280
     1
102
RTVSPost2010Prop28
280
     0
102
RTVSPost2010PropOp28
 70
     1
102
RTVSPost2010Prop29
280
     1
102
RTVSPost2010PropOp29
 70
     1
102
RTVSPost2010Prop30
280
     1
102
RTVSPost2010PropOp30
 70
     1
102
RTVSPost2010Prop31
280
     0
102
RTVSPost2010PropOp31
 70
     1
102
RTVSPost2010Prop32
280
     0
102
RTVSPost2010PropOp32
 70
     1
102
RTVSPost2010Prop33
280
     0
102
RTVSPost2010PropOp33
 70
     1
102
RTVSPost2010Prop34
280
     0
102
RTVSPost2010PropOp34
 70
     1
102
RTVSPost2010Prop35
280
     0
102
RTVSPost2010PropOp35
 70
     1
102
RTVSPost2010Prop36
280
     0
102
RTVSPost2010PropOp36
 70
     1
102
RTVSPost2010Prop37
 90
       50
102
RTVSPost2010PropOp37
 70
     1
102
RTVSPost2010Prop38
140
0.0
102
RTVSPost2010PropOp38
 70
     1
102
RTVSPost2010Prop39
140
1.0
102
RTVSPost2010PropOp39
 70
     1
102
RTVSPost2010Prop40
 90
        0
102
RTVSPost2010PropOp40
 70
     1
102
RTVSPost2010Prop41ColorIndex
 90
       18
102
RTVSPost2010Prop41ColorRGB
 90
        0
102
RTVSPost2010PropOp41
 70
     1
102
RTVSPost2010Prop42
 90
       50
102
RTVSPost2010PropOp42
 70
     1
102
RTVSPost2010Prop43
 90
        3
102
RTVSPost2010PropOp43
 70
     1
102
RTVSPost2010Prop44ColorIndex
 90
        5
102
RTVSPost2010Prop44ColorRGB
 90
      255
102
RTVSPost2010PropOp44
 70
     1
102
RTVSPost2010Prop45
280
     0
102
RTVSPost2010PropOp45
 70
     1
102
RTVSPost2010Prop46
 90
       50
102
RTVSPost2010PropOp46
 70
     1
102
RTVSPost2010Prop47
 90
       50
102
RTVSPost2010PropOp47
 70
     1
102
RTVSPost2010Prop48
 90
       50
102
RTVSPost2010PropOp48
 70
     1
102
RTVSPost2010Prop49
280
     0
102
RTVSPost2010PropOp49
 70
     1
102
RTVSPost2010Prop50
 90
       50
102
RTVSPost2010PropOp50
 70
     1
102
RTVSPost2010Prop51ColorIndex
 90
      256
102
RTVSPost2010Prop51ColorRGB
 90
-16777216
102
RTVSPost2010PropOp51
 70
     0
102
RTVSPost2010Prop52
140
1.0
102
RTVSPost2010PropOp52
 70
     0
102
RTVSPost2010Prop53
 90
        2
102
RTVSPost2010PropOp53
 70
     1
102
RTVSPost2010Prop54
  1
strokes_ogs.tif
102
RTVSPost2010PropOp54
 70
     1
102
RTVSPost2010Prop55
280
     0
102
RTVSPost2010PropOp55
 70
     1
102
RTVSPost2010Prop56
140
1.0
102
RTVSPost2010PropOp56
 70
     1
102
RTVSPost2010Prop57
140
1.0
102
RTVSPost2010PropOp57
 70
     1
102
RTVSPropertyOp0
 70
     1
102
RTVSPropertyOp1
 70
     1
102
RTVSPropertyOp2
 70
     1
102
RTVSPropertyOp3
 70
     1
102
RTVSPropertyOp4
 70
     1
102
RTVSPropertyOp5
 70
     1
102
RTVSPropertyOp6
 70
     1
102
RTVSPropertyOp7
 70
     1
102
RTVSPropertyOp8
 70
     1
102
RTVSPropertyOp9
 70
     1
102
RTVSPropertyOp10
 70
     1
102
RTVSPropertyOp11
 70
     1
102
RTVSPropertyOp12
 70
     1
102
RTVSPropertyOp13
 70
     1
102
RTVSPropertyOp14
 70
     1
102
RTVSPropertyOp15
 70
     1
102
RTVSPropertyOp16
 70
     1
102
RTVSPropertyOp17
 70
     1
102
RTVSPropertyOp18
 70
     1
102
RTVSPropertyOp19
 70
     1
102
RTVSPropertyOp20
 70
     1
102
RTVSPropertyOp21
 70
     1
102
RTVSPropertyOp22
 70
     1
102
RTVSPropertyOp23
 70
     1
102
RTVSPropertyOp24
 70
     1
102
RTVSPropertyOp25
 70
     1
102
RTVSPropertyOp26
 70
     1
102
RTVSPropertyOp27
 70
     1
102
RTVSPropertyOp28
 70
     1
102
RTVSPropertyOp29
 70
     1
102
RTVSPropertyOp30
 70
     1
102
RTVSPropertyOp31
 70
     1
102
RTVSPropertyOp32
 70
     1
102
RTVSPropertyOp33
 70
     1
102
RTVSPropertyOp34
 70
     1
102
RTVSPropertyOp35
 70
     1
102
RTVSPropertyOp36
 70
     1
102
RTVSPropertyOp37
 70
     1
102
RTVSPropertyOp38
 70
     1
102
RTVSPropertyOp39
 70
     1
102
RTVSPropertyOp40
 70
     1
102
RTVSPropertyOp41
 70
     1
102
RTVSPropertyOp42
 70
     1
102
RTVSPropertyOp43
 70
     1
102
RTVSPropertyOp44
 70
     1
102
RTVSPropertyOp45
 70
     1
102
RTVSPropertyOp46
 70
     1
102
RTVSPropertyOp47
 70
     1
102
RTVSPropertyOp48
 70
     1
102
RTVSPropertyOp49
 70
     1
102
RTVSPropertyOp50
 70
     1
102
RTVSPropertyOp51
 70
     0
102
RTVSPropertyOp52
 70
     0
102
RTVSPropertyOp53
 70
     1
102
RTVSPropertyOp54
 70
     1
102
RTVSPropertyOp55
 70
     1
102
RTVSPropertyOp56
 70
     1
102
RTVSPropertyOp57
 70
     1
102
RTVSPropertyOp58
 70
     1
102
RTVSPropertyOp59
 70
     1
102
RTVSPropertyOp60
 70
     1
102
RTVSPropertyOp61
 70
     1
102
RTVSPropertyOp62
 70
     1
  0
XRECORD
  5
13B0
102
{ACAD_REACTORS
330
13AF
102
}
330
13AF
100
AcDbXrecord
280
     1
102
RTVSPost2010Prop28
280
     0
102
RTVSPost2010PropOp28
 70
     1
102
RTVSPost2010Prop29
280
     1
102
RTVSPost2010PropOp29
 70
     1
102
RTVSPost2010Prop30
280
     1
102
RTVSPost2010PropOp30
 70
     1
102
RTVSPost2010Prop31
280
     0
102
RTVSPost2010PropOp31
 70
     1
102
RTVSPost2010Prop32
280
     0
102
RTVSPost2010PropOp32
 70
     1
102
RTVSPost2010Prop33
280
     0
102
RTVSPost2010PropOp33
 70
     1
102
RTVSPost2010Prop34
280
     0
102
RTVSPost2010PropOp34
 70
     1
102
RTVSPost2010Prop35
280
     0
102
RTVSPost2010PropOp35
 70
     1
102
RTVSPost2010Prop36
280
     0
102
RTVSPost2010PropOp36
 70
     1
102
RTVSPost2010Prop37
 90
       50
102
RTVSPost2010PropOp37
 70
     1
102
RTVSPost2010Prop38
140
0.0
102
RTVSPost2010PropOp38
 70
     1
102
RTVSPost2010Prop39
140
1.0
102
RTVSPost2010PropOp39
 70
     1
102
RTVSPost2010Prop40
 90
        0
102
RTVSPost2010PropOp40
 70
     1
102
RTVSPost2010Prop41ColorIndex
 90
       18
102
RTVSPost2010Prop41ColorRGB
 90
        0
102
RTVSPost2010PropOp41
 70
     1
102
RTVSPost2010Prop42
 90
       50
102
RTVSPost2010PropOp42
 70
     1
102
RTVSPost2010Prop43
 90
        3
102
RTVSPost2010PropOp43
 70
     1
102
RTVSPost2010Prop44ColorIndex
 90
        5
102
RTVSPost2010Prop44ColorRGB
 90
      255
102
RTVSPost2010PropOp44
 70
     1
102
RTVSPost2010Prop45
280
     0
102
RTVSPost2010PropOp45
 70
     1
102
RTVSPost2010Prop46
 90
       50
102
RTVSPost2010PropOp46
 70
     1
102
RTVSPost2010Prop47
 90
       50
102
RTVSPost2010PropOp47
 70
     1
102
RTVSPost2010Prop48
 90
       50
102
RTVSPost2010PropOp48
 70
     1
102
RTVSPost2010Prop49
280
     0
102
RTVSPost2010PropOp49
 70
     1
102
RTVSPost2010Prop50
 90
       50
102
RTVSPost2010PropOp50
 70
     1
102
RTVSPost2010Prop51ColorIndex
 90
      256
102
RTVSPost2010Prop51ColorRGB
 90
-16777216
102
RTVSPost2010PropOp51
 70
     0
102
RTVSPost2010Prop52
140
1.0
102
RTVSPost2010PropOp52
 70
     0
102
RTVSPost2010Prop53
 90
        2
102
RTVSPost2010PropOp53
 70
     1
102
RTVSPost2010Prop54
  1
strokes_ogs.tif
102
RTVSPost2010PropOp54
 70
     1
102
RTVSPost2010Prop55
280
     0
102
RTVSPost2010PropOp55
 70
     1
102
RTVSPost2010Prop56
140
1.0
102
RTVSPost2010PropOp56
 70
     1
102
RTVSPost2010Prop57
140
1.0
102
RTVSPost2010PropOp57
 70
     1
102
RTVSPropertyOp0
 70
     1
102
RTVSPropertyOp1
 70
     1
102
RTVSPropertyOp2
 70
     1
102
RTVSPropertyOp3
 70
     1
102
RTVSPropertyOp4
 70
     1
102
RTVSPropertyOp5
 70
     1
102
RTVSPropertyOp6
 70
     1
102
RTVSPropertyOp7
 70
     1
102
RTVSPropertyOp8
 70
     1
102
RTVSPropertyOp9
 70
     1
102
RTVSPropertyOp10
 70
     1
102
RTVSPropertyOp11
 70
     1
102
RTVSPropertyOp12
 70
     1
102
RTVSPropertyOp13
 70
     1
102
RTVSPropertyOp14
 70
     1
102
RTVSPropertyOp15
 70
     1
102
RTVSPropertyOp16
 70
     1
102
RTVSPropertyOp17
 70
     1
102
RTVSPropertyOp18
 70
     1
102
RTVSPropertyOp19
 70
     1
102
RTVSPropertyOp20
 70
     1
102
RTVSPropertyOp21
 70
     1
102
RTVSPropertyOp22
 70
     1
102
RTVSPropertyOp23
 70
     1
102
RTVSPropertyOp24
 70
     1
102
RTVSPropertyOp25
 70
     1
102
RTVSPropertyOp26
 70
     1
102
RTVSPropertyOp27
 70
     1
102
RTVSPropertyOp28
 70
     1
102
RTVSPropertyOp29
 70
     1
102
RTVSPropertyOp30
 70
     1
102
RTVSPropertyOp31
 70
     1
102
RTVSPropertyOp32
 70
     1
102
RTVSPropertyOp33
 70
     1
102
RTVSPropertyOp34
 70
     1
102
RTVSPropertyOp35
 70
     1
102
RTVSPropertyOp36
 70
     1
102
RTVSPropertyOp37
 70
     1
102
RTVSPropertyOp38
 70
     1
102
RTVSPropertyOp39
 70
     1
102
RTVSPropertyOp40
 70
     1
102
RTVSPropertyOp41
 70
     1
102
RTVSPropertyOp42
 70
     1
102
RTVSPropertyOp43
 70
     1
102
RTVSPropertyOp44
 70
     1
102
RTVSPropertyOp45
 70
     1
102
RTVSPropertyOp46
 70
     1
102
RTVSPropertyOp47
 70
     1
102
RTVSPropertyOp48
 70
     1
102
RTVSPropertyOp49
 70
     1
102
RTVSPropertyOp50
 70
     1
102
RTVSPropertyOp51
 70
     0
102
RTVSPropertyOp52
 70
     0
102
RTVSPropertyOp53
 70
     1
102
RTVSPropertyOp54
 70
     1
102
RTVSPropertyOp55
 70
     1
102
RTVSPropertyOp56
 70
     1
102
RTVSPropertyOp57
 70
     1
102
RTVSPropertyOp58
 70
     1
102
RTVSPropertyOp59
 70
     1
102
RTVSPropertyOp60
 70
     1
102
RTVSPropertyOp61
 70
     1
102
RTVSPropertyOp62
 70
     1
  0
XRECORD
  5
13CE
102
{ACAD_REACTORS
330
13CD
102
}
330
13CD
100
AcDbXrecord
280
     1
102
RTVSPost2010Prop28
280
     0
102
RTVSPost2010PropOp28
 70
     1
102
RTVSPost2010Prop29
280
     1
102
RTVSPost2010PropOp29
 70
     1
102
RTVSPost2010Prop30
280
     1
102
RTVSPost2010PropOp30
 70
     1
102
RTVSPost2010Prop31
280
     0
102
RTVSPost2010PropOp31
 70
     1
102
RTVSPost2010Prop32
280
     0
102
RTVSPost2010PropOp32
 70
     1
102
RTVSPost2010Prop33
280
     0
102
RTVSPost2010PropOp33
 70
     1
102
RTVSPost2010Prop34
280
     0
102
RTVSPost2010PropOp34
 70
     1
102
RTVSPost2010Prop35
280
     0
102
RTVSPost2010PropOp35
 70
     1
102
RTVSPost2010Prop36
280
     0
102
RTVSPost2010PropOp36
 70
     1
102
RTVSPost2010Prop37
 90
       50
102
RTVSPost2010PropOp37
 70
     0
102
RTVSPost2010Prop38
140
0.0
102
RTVSPost2010PropOp38
 70
     0
102
RTVSPost2010Prop39
140
1.0
102
RTVSPost2010PropOp39
 70
     0
102
RTVSPost2010Prop40
 90
        0
102
RTVSPost2010PropOp40
 70
     0
102
RTVSPost2010Prop41ColorIndex
 90
       18
102
RTVSPost2010Prop41ColorRGB
 90
        0
102
RTVSPost2010PropOp41
 70
     0
102
RTVSPost2010Prop42
 90
       50
102
RTVSPost2010PropOp42
 70
     0
102
RTVSPost2010Prop43
 90
        3
102
RTVSPost2010PropOp43
 70
     0
102
RTVSPost2010Prop44ColorIndex
 90
        5
102
RTVSPost2010Prop44ColorRGB
 90
      255
102
RTVSPost2010PropOp44
 70
     0
102
RTVSPost2010Prop45
280
     0
102
RTVSPost2010PropOp45
 70
     1
102
RTVSPost2010Prop46
 90
       50
102
RTVSPost2010PropOp46
 70
     0
102
RTVSPost2010Prop47
 90
       50
102
RTVSPost2010PropOp47
 70
     0
102
RTVSPost2010Prop48
 90
       50
102
RTVSPost2010PropOp48
 70
     0
102
RTVSPost2010Prop49
280
     0
102
RTVSPost2010PropOp49
 70
     1
102
RTVSPost2010Prop50
 90
       50
102
RTVSPost2010PropOp50
 70
     0
102
RTVSPost2010Prop51ColorIndex
 90
      256
102
RTVSPost2010Prop51ColorRGB
 90
-16777216
102
RTVSPost2010PropOp51
 70
     0
102
RTVSPost2010Prop52
140
1.0
102
RTVSPost2010PropOp52
 70
     0
102
RTVSPost2010Prop53
 90
        2
102
RTVSPost2010PropOp53
 70
     0
102
RTVSPost2010Prop54
  1
strokes_ogs.tif
102
RTVSPost2010PropOp54
 70
     0
102
RTVSPost2010Prop55
280
     0
102
RTVSPost2010PropOp55
 70
     1
102
RTVSPost2010Prop56
140
1.0
102
RTVSPost2010PropOp56
 70
     0
102
RTVSPost2010Prop57
140
1.0
102
RTVSPost2010PropOp57
 70
     0
102
RTVSPropertyOp0
 70
     0
102
RTVSPropertyOp1
 70
     0
102
RTVSPropertyOp2
 70
     0
102
RTVSPropertyOp3
 70
     0
102
RTVSPropertyOp4
 70
     0
102
RTVSPropertyOp5
 70
     0
102
RTVSPropertyOp6
 70
     0
102
RTVSPropertyOp7
 70
     0
102
RTVSPropertyOp8
 70
     0
102
RTVSPropertyOp9
 70
     0
102
RTVSPropertyOp10
 70
     0
102
RTVSPropertyOp11
 70
     0
102
RTVSPropertyOp12
 70
     0
102
RTVSPropertyOp13
 70
     0
102
RTVSPropertyOp14
 70
     2
102
RTVSPropertyOp15
 70
     0
102
RTVSPropertyOp16
 70
     0
102
RTVSPropertyOp17
 70
     0
102
RTVSPropertyOp18
 70
     0
102
RTVSPropertyOp19
 70
     0
102
RTVSPropertyOp20
 70
     0
102
RTVSPropertyOp21
 70
     0
102
RTVSPropertyOp22
 70
     0
102
RTVSPropertyOp23
 70
     0
102
RTVSPropertyOp24
 70
     0
102
RTVSPropertyOp25
 70
     0
102
RTVSPropertyOp26
 70
     0
102
RTVSPropertyOp27
 70
     0
102
RTVSPropertyOp28
 70
     1
102
RTVSPropertyOp29
 70
     1
102
RTVSPropertyOp30
 70
     1
102
RTVSPropertyOp31
 70
     1
102
RTVSPropertyOp32
 70
     1
102
RTVSPropertyOp33
 70
     1
102
RTVSPropertyOp34
 70
     1
102
RTVSPropertyOp35
 70
     1
102
RTVSPropertyOp36
 70
     1
102
RTVSPropertyOp37
 70
     0
102
RTVSPropertyOp38
 70
     0
102
RTVSPropertyOp39
 70
     0
102
RTVSPropertyOp40
 70
     0
102
RTVSPropertyOp41
 70
     0
102
RTVSPropertyOp42
 70
     0
102
RTVSPropertyOp43
 70
     0
102
RTVSPropertyOp44
 70
     0
102
RTVSPropertyOp45
 70
     1
102
RTVSPropertyOp46
 70
     0
102
RTVSPropertyOp47
 70
     0
102
RTVSPropertyOp48
 70
     0
102
RTVSPropertyOp49
 70
     1
102
RTVSPropertyOp50
 70
     0
102
RTVSPropertyOp51
 70
     0
102
RTVSPropertyOp52
 70
     0
102
RTVSPropertyOp53
 70
     0
102
RTVSPropertyOp54
 70
     0
102
RTVSPropertyOp55
 70
     1
102
RTVSPropertyOp56
 70
     0
102
RTVSPropertyOp57
 70
     0
102
RTVSPropertyOp58
 70
     0
102
RTVSPropertyOp59
 70
     0
102
RTVSPropertyOp60
 70
     0
102
RTVSPropertyOp61
 70
     0
102
RTVSPropertyOp62
 70
     0
  0
XRECORD
  5
13B8
102
{ACAD_REACTORS
330
13B7
102
}
330
13B7
100
AcDbXrecord
280
     1
102
RTVSPost2010Prop28
280
     0
102
RTVSPost2010PropOp28
 70
     1
102
RTVSPost2010Prop29
280
     1
102
RTVSPost2010PropOp29
 70
     1
102
RTVSPost2010Prop30
280
     1
102
RTVSPost2010PropOp30
 70
     1
102
RTVSPost2010Prop31
280
     0
102
RTVSPost2010PropOp31
 70
     1
102
RTVSPost2010Prop32
280
     0
102
RTVSPost2010PropOp32
 70
     1
102
RTVSPost2010Prop33
280
     0
102
RTVSPost2010PropOp33
 70
     1
102
RTVSPost2010Prop34
280
     0
102
RTVSPost2010PropOp34
 70
     1
102
RTVSPost2010Prop35
280
     0
102
RTVSPost2010PropOp35
 70
     1
102
RTVSPost2010Prop36
280
     0
102
RTVSPost2010PropOp36
 70
     1
102
RTVSPost2010Prop37
 90
       50
102
RTVSPost2010PropOp37
 70
     1
102
RTVSPost2010Prop38
140
0.0
102
RTVSPost2010PropOp38
 70
     1
102
RTVSPost2010Prop39
140
1.0
102
RTVSPost2010PropOp39
 70
     1
102
RTVSPost2010Prop40
 90
        0
102
RTVSPost2010PropOp40
 70
     1
102
RTVSPost2010Prop41ColorIndex
 90
       18
102
RTVSPost2010Prop41ColorRGB
 90
        0
102
RTVSPost2010PropOp41
 70
     1
102
RTVSPost2010Prop42
 90
       50
102
RTVSPost2010PropOp42
 70
     1
102
RTVSPost2010Prop43
 90
        3
102
RTVSPost2010PropOp43
 70
     1
102
RTVSPost2010Prop44ColorIndex
 90
        5
102
RTVSPost2010Prop44ColorRGB
 90
      255
102
RTVSPost2010PropOp44
 70
     1
102
RTVSPost2010Prop45
280
     0
102
RTVSPost2010PropOp45
 70
     1
102
RTVSPost2010Prop46
 90
       50
102
RTVSPost2010PropOp46
 70
     1
102
RTVSPost2010Prop47
 90
       50
102
RTVSPost2010PropOp47
 70
     1
102
RTVSPost2010Prop48
 90
       50
102
RTVSPost2010PropOp48
 70
     1
102
RTVSPost2010Prop49
280
     0
102
RTVSPost2010PropOp49
 70
     1
102
RTVSPost2010Prop50
 90
       50
102
RTVSPost2010PropOp50
 70
     1
102
RTVSPost2010Prop51ColorIndex
 90
      256
102
RTVSPost2010Prop51ColorRGB
 90
-16777216
102
RTVSPost2010PropOp51
 70
     0
102
RTVSPost2010Prop52
140
1.0
102
RTVSPost2010PropOp52
 70
     0
102
RTVSPost2010Prop53
 90
        2
102
RTVSPost2010PropOp53
 70
     1
102
RTVSPost2010Prop54
  1
strokes_ogs.tif
102
RTVSPost2010PropOp54
 70
     1
102
RTVSPost2010Prop55
280
     0
102
RTVSPost2010PropOp55
 70
     1
102
RTVSPost2010Prop56
140
1.0
102
RTVSPost2010PropOp56
 70
     1
102
RTVSPost2010Prop57
140
1.0
102
RTVSPost2010PropOp57
 70
     1
102
RTVSPropertyOp0
 70
     1
102
RTVSPropertyOp1
 70
     1
102
RTVSPropertyOp2
 70
     1
102
RTVSPropertyOp3
 70
     1
102
RTVSPropertyOp4
 70
     1
102
RTVSPropertyOp5
 70
     1
102
RTVSPropertyOp6
 70
     1
102
RTVSPropertyOp7
 70
     1
102
RTVSPropertyOp8
 70
     1
102
RTVSPropertyOp9
 70
     1
102
RTVSPropertyOp10
 70
     1
102
RTVSPropertyOp11
 70
     1
102
RTVSPropertyOp12
 70
     1
102
RTVSPropertyOp13
 70
     1
102
RTVSPropertyOp14
 70
     1
102
RTVSPropertyOp15
 70
     1
102
RTVSPropertyOp16
 70
     1
102
RTVSPropertyOp17
 70
     1
102
RTVSPropertyOp18
 70
     1
102
RTVSPropertyOp19
 70
     1
102
RTVSPropertyOp20
 70
     1
102
RTVSPropertyOp21
 70
     1
102
RTVSPropertyOp22
 70
     1
102
RTVSPropertyOp23
 70
     1
102
RTVSPropertyOp24
 70
     1
102
RTVSPropertyOp25
 70
     1
102
RTVSPropertyOp26
 70
     1
102
RTVSPropertyOp27
 70
     1
102
RTVSPropertyOp28
 70
     1
102
RTVSPropertyOp29
 70
     1
102
RTVSPropertyOp30
 70
     1
102
RTVSPropertyOp31
 70
     1
102
RTVSPropertyOp32
 70
     1
102
RTVSPropertyOp33
 70
     1
102
RTVSPropertyOp34
 70
     1
102
RTVSPropertyOp35
 70
     1
102
RTVSPropertyOp36
 70
     1
102
RTVSPropertyOp37
 70
     1
102
RTVSPropertyOp38
 70
     1
102
RTVSPropertyOp39
 70
     1
102
RTVSPropertyOp40
 70
     1
102
RTVSPropertyOp41
 70
     1
102
RTVSPropertyOp42
 70
     1
102
RTVSPropertyOp43
 70
     1
102
RTVSPropertyOp44
 70
     1
102
RTVSPropertyOp45
 70
     1
102
RTVSPropertyOp46
 70
     1
102
RTVSPropertyOp47
 70
     1
102
RTVSPropertyOp48
 70
     1
102
RTVSPropertyOp49
 70
     1
102
RTVSPropertyOp50
 70
     1
102
RTVSPropertyOp51
 70
     0
102
RTVSPropertyOp52
 70
     0
102
RTVSPropertyOp53
 70
     1
102
RTVSPropertyOp54
 70
     1
102
RTVSPropertyOp55
 70
     1
102
RTVSPropertyOp56
 70
     1
102
RTVSPropertyOp57
 70
     1
102
RTVSPropertyOp58
 70
     1
102
RTVSPropertyOp59
 70
     1
102
RTVSPropertyOp60
 70
     1
102
RTVSPropertyOp61
 70
     1
102
RTVSPropertyOp62
 70
     1
  0
XRECORD
  5
139C
102
{ACAD_REACTORS
330
139B
102
}
330
139B
100
AcDbXrecord
280
     1
102
RTVSPost2010Prop28
280
     0
102
RTVSPost2010PropOp28
 70
     1
102
RTVSPost2010Prop29
280
     1
102
RTVSPost2010PropOp29
 70
     1
102
RTVSPost2010Prop30
280
     1
102
RTVSPost2010PropOp30
 70
     1
102
RTVSPost2010Prop31
280
     0
102
RTVSPost2010PropOp31
 70
     1
102
RTVSPost2010Prop32
280
     0
102
RTVSPost2010PropOp32
 70
     1
102
RTVSPost2010Prop33
280
     0
102
RTVSPost2010PropOp33
 70
     1
102
RTVSPost2010Prop34
280
     0
102
RTVSPost2010PropOp34
 70
     1
102
RTVSPost2010Prop35
280
     0
102
RTVSPost2010PropOp35
 70
     1
102
RTVSPost2010Prop36
280
     0
102
RTVSPost2010PropOp36
 70
     1
102
RTVSPost2010Prop37
 90
       50
102
RTVSPost2010PropOp37
 70
     1
102
RTVSPost2010Prop38
140
0.0
102
RTVSPost2010PropOp38
 70
     1
102
RTVSPost2010Prop39
140
1.0
102
RTVSPost2010PropOp39
 70
     1
102
RTVSPost2010Prop40
 90
        0
102
RTVSPost2010PropOp40
 70
     1
102
RTVSPost2010Prop41ColorIndex
 90
       18
102
RTVSPost2010Prop41ColorRGB
 90
        0
102
RTVSPost2010PropOp41
 70
     1
102
RTVSPost2010Prop42
 90
       50
102
RTVSPost2010PropOp42
 70
     1
102
RTVSPost2010Prop43
 90
        3
102
RTVSPost2010PropOp43
 70
     1
102
RTVSPost2010Prop44ColorIndex
 90
        5
102
RTVSPost2010Prop44ColorRGB
 90
      255
102
RTVSPost2010PropOp44
 70
     1
102
RTVSPost2010Prop45
280
     0
102
RTVSPost2010PropOp45
 70
     1
102
RTVSPost2010Prop46
 90
       50
102
RTVSPost2010PropOp46
 70
     1
102
RTVSPost2010Prop47
 90
       50
102
RTVSPost2010PropOp47
 70
     1
102
RTVSPost2010Prop48
 90
       50
102
RTVSPost2010PropOp48
 70
     1
102
RTVSPost2010Prop49
280
     0
102
RTVSPost2010PropOp49
 70
     1
102
RTVSPost2010Prop50
 90
       50
102
RTVSPost2010PropOp50
 70
     1
102
RTVSPost2010Prop51ColorIndex
 90
      256
102
RTVSPost2010Prop51ColorRGB
 90
-16777216
102
RTVSPost2010PropOp51
 70
     0
102
RTVSPost2010Prop52
140
1.0
102
RTVSPost2010PropOp52
 70
     0
102
RTVSPost2010Prop53
 90
        2
102
RTVSPost2010PropOp53
 70
     1
102
RTVSPost2010Prop54
  1
strokes_ogs.tif
102
RTVSPost2010PropOp54
 70
     1
102
RTVSPost2010Prop55
280
     0
102
RTVSPost2010PropOp55
 70
     1
102
RTVSPost2010Prop56
140
1.0
102
RTVSPost2010PropOp56
 70
     1
102
RTVSPost2010Prop57
140
1.0
102
RTVSPost2010PropOp57
 70
     1
102
RTVSPropertyOp0
 70
     1
102
RTVSPropertyOp1
 70
     1
102
RTVSPropertyOp2
 70
     1
102
RTVSPropertyOp3
 70
     1
102
RTVSPropertyOp4
 70
     1
102
RTVSPropertyOp5
 70
     1
102
RTVSPropertyOp6
 70
     1
102
RTVSPropertyOp7
 70
     1
102
RTVSPropertyOp8
 70
     1
102
RTVSPropertyOp9
 70
     1
102
RTVSPropertyOp10
 70
     1
102
RTVSPropertyOp11
 70
     1
102
RTVSPropertyOp12
 70
     1
102
RTVSPropertyOp13
 70
     1
102
RTVSPropertyOp14
 70
     1
102
RTVSPropertyOp15
 70
     1
102
RTVSPropertyOp16
 70
     1
102
RTVSPropertyOp17
 70
     1
102
RTVSPropertyOp18
 70
     1
102
RTVSPropertyOp19
 70
     1
102
RTVSPropertyOp20
 70
     1
102
RTVSPropertyOp21
 70
     1
102
RTVSPropertyOp22
 70
     1
102
RTVSPropertyOp23
 70
     1
102
RTVSPropertyOp24
 70
     1
102
RTVSPropertyOp25
 70
     1
102
RTVSPropertyOp26
 70
     1
102
RTVSPropertyOp27
 70
     1
102
RTVSPropertyOp28
 70
     1
102
RTVSPropertyOp29
 70
     1
102
RTVSPropertyOp30
 70
     1
102
RTVSPropertyOp31
 70
     1
102
RTVSPropertyOp32
 70
     1
102
RTVSPropertyOp33
 70
     1
102
RTVSPropertyOp34
 70
     1
102
RTVSPropertyOp35
 70
     1
102
RTVSPropertyOp36
 70
     1
102
RTVSPropertyOp37
 70
     1
102
RTVSPropertyOp38
 70
     1
102
RTVSPropertyOp39
 70
     1
102
RTVSPropertyOp40
 70
     1
102
RTVSPropertyOp41
 70
     1
102
RTVSPropertyOp42
 70
     1
102
RTVSPropertyOp43
 70
     1
102
RTVSPropertyOp44
 70
     1
102
RTVSPropertyOp45
 70
     1
102
RTVSPropertyOp46
 70
     1
102
RTVSPropertyOp47
 70
     1
102
RTVSPropertyOp48
 70
     1
102
RTVSPropertyOp49
 70
     1
102
RTVSPropertyOp50
 70
     1
102
RTVSPropertyOp51
 70
     0
102
RTVSPropertyOp52
 70
     0
102
RTVSPropertyOp53
 70
     1
102
RTVSPropertyOp54
 70
     1
102
RTVSPropertyOp55
 70
     1
102
RTVSPropertyOp56
 70
     1
102
RTVSPropertyOp57
 70
     1
102
RTVSPropertyOp58
 70
     1
102
RTVSPropertyOp59
 70
     1
102
RTVSPropertyOp60
 70
     1
102
RTVSPropertyOp61
 70
     1
102
RTVSPropertyOp62
 70
     1
  0
XRECORD
  5
139E
102
{ACAD_REACTORS
330
139D
102
}
330
139D
100
AcDbXrecord
280
     1
102
RTVSPost2010Prop28
280
     0
102
RTVSPost2010PropOp28
 70
     1
102
RTVSPost2010Prop29
280
     1
102
RTVSPost2010PropOp29
 70
     1
102
RTVSPost2010Prop30
280
     1
102
RTVSPost2010PropOp30
 70
     1
102
RTVSPost2010Prop31
280
     0
102
RTVSPost2010PropOp31
 70
     1
102
RTVSPost2010Prop32
280
     0
102
RTVSPost2010PropOp32
 70
     1
102
RTVSPost2010Prop33
280
     0
102
RTVSPost2010PropOp33
 70
     1
102
RTVSPost2010Prop34
280
     0
102
RTVSPost2010PropOp34
 70
     1
102
RTVSPost2010Prop35
280
     0
102
RTVSPost2010PropOp35
 70
     1
102
RTVSPost2010Prop36
280
     0
102
RTVSPost2010PropOp36
 70
     1
102
RTVSPost2010Prop37
 90
       50
102
RTVSPost2010PropOp37
 70
     1
102
RTVSPost2010Prop38
140
0.0
102
RTVSPost2010PropOp38
 70
     1
102
RTVSPost2010Prop39
140
1.0
102
RTVSPost2010PropOp39
 70
     1
102
RTVSPost2010Prop40
 90
        0
102
RTVSPost2010PropOp40
 70
     1
102
RTVSPost2010Prop41ColorIndex
 90
       18
102
RTVSPost2010Prop41ColorRGB
 90
        0
102
RTVSPost2010PropOp41
 70
     1
102
RTVSPost2010Prop42
 90
       50
102
RTVSPost2010PropOp42
 70
     1
102
RTVSPost2010Prop43
 90
        3
102
RTVSPost2010PropOp43
 70
     1
102
RTVSPost2010Prop44ColorIndex
 90
        5
102
RTVSPost2010Prop44ColorRGB
 90
      255
102
RTVSPost2010PropOp44
 70
     1
102
RTVSPost2010Prop45
280
     0
102
RTVSPost2010PropOp45
 70
     1
102
RTVSPost2010Prop46
 90
       50
102
RTVSPost2010PropOp46
 70
     1
102
RTVSPost2010Prop47
 90
       50
102
RTVSPost2010PropOp47
 70
     1
102
RTVSPost2010Prop48
 90
       50
102
RTVSPost2010PropOp48
 70
     1
102
RTVSPost2010Prop49
280
     0
102
RTVSPost2010PropOp49
 70
     1
102
RTVSPost2010Prop50
 90
       50
102
RTVSPost2010PropOp50
 70
     1
102
RTVSPost2010Prop51ColorIndex
 90
      256
102
RTVSPost2010Prop51ColorRGB
 90
-16777216
102
RTVSPost2010PropOp51
 70
     0
102
RTVSPost2010Prop52
140
1.0
102
RTVSPost2010PropOp52
 70
     0
102
RTVSPost2010Prop53
 90
        2
102
RTVSPost2010PropOp53
 70
     1
102
RTVSPost2010Prop54
  1
strokes_ogs.tif
102
RTVSPost2010PropOp54
 70
     1
102
RTVSPost2010Prop55
280
     0
102
RTVSPost2010PropOp55
 70
     1
102
RTVSPost2010Prop56
140
1.0
102
RTVSPost2010PropOp56
 70
     1
102
RTVSPost2010Prop57
140
1.0
102
RTVSPost2010PropOp57
 70
     1
102
RTVSPropertyOp0
 70
     1
102
RTVSPropertyOp1
 70
     1
102
RTVSPropertyOp2
 70
     1
102
RTVSPropertyOp3
 70
     1
102
RTVSPropertyOp4
 70
     1
102
RTVSPropertyOp5
 70
     1
102
RTVSPropertyOp6
 70
     1
102
RTVSPropertyOp7
 70
     1
102
RTVSPropertyOp8
 70
     1
102
RTVSPropertyOp9
 70
     1
102
RTVSPropertyOp10
 70
     1
102
RTVSPropertyOp11
 70
     1
102
RTVSPropertyOp12
 70
     1
102
RTVSPropertyOp13
 70
     1
102
RTVSPropertyOp14
 70
     1
102
RTVSPropertyOp15
 70
     1
102
RTVSPropertyOp16
 70
     1
102
RTVSPropertyOp17
 70
     1
102
RTVSPropertyOp18
 70
     1
102
RTVSPropertyOp19
 70
     1
102
RTVSPropertyOp20
 70
     1
102
RTVSPropertyOp21
 70
     1
102
RTVSPropertyOp22
 70
     1
102
RTVSPropertyOp23
 70
     1
102
RTVSPropertyOp24
 70
     1
102
RTVSPropertyOp25
 70
     1
102
RTVSPropertyOp26
 70
     1
102
RTVSPropertyOp27
 70
     1
102
RTVSPropertyOp28
 70
     1
102
RTVSPropertyOp29
 70
     1
102
RTVSPropertyOp30
 70
     1
102
RTVSPropertyOp31
 70
     1
102
RTVSPropertyOp32
 70
     1
102
RTVSPropertyOp33
 70
     1
102
RTVSPropertyOp34
 70
     1
102
RTVSPropertyOp35
 70
     1
102
RTVSPropertyOp36
 70
     1
102
RTVSPropertyOp37
 70
     1
102
RTVSPropertyOp38
 70
     1
102
RTVSPropertyOp39
 70
     1
102
RTVSPropertyOp40
 70
     1
102
RTVSPropertyOp41
 70
     1
102
RTVSPropertyOp42
 70
     1
102
RTVSPropertyOp43
 70
     1
102
RTVSPropertyOp44
 70
     1
102
RTVSPropertyOp45
 70
     1
102
RTVSPropertyOp46
 70
     1
102
RTVSPropertyOp47
 70
     1
102
RTVSPropertyOp48
 70
     1
102
RTVSPropertyOp49
 70
     1
102
RTVSPropertyOp50
 70
     1
102
RTVSPropertyOp51
 70
     0
102
RTVSPropertyOp52
 70
     0
102
RTVSPropertyOp53
 70
     1
102
RTVSPropertyOp54
 70
     1
102
RTVSPropertyOp55
 70
     1
102
RTVSPropertyOp56
 70
     1
102
RTVSPropertyOp57
 70
     1
102
RTVSPropertyOp58
 70
     1
102
RTVSPropertyOp59
 70
     1
102
RTVSPropertyOp60
 70
     1
102
RTVSPropertyOp61
 70
     1
102
RTVSPropertyOp62
 70
     1
  0
XRECORD
  5
13A0
102
{ACAD_REACTORS
330
139F
102
}
330
139F
100
AcDbXrecord
280
     1
102
RTVSPost2010Prop28
280
     0
102
RTVSPost2010PropOp28
 70
     1
102
RTVSPost2010Prop29
280
     1
102
RTVSPost2010PropOp29
 70
     1
102
RTVSPost2010Prop30
280
     1
102
RTVSPost2010PropOp30
 70
     1
102
RTVSPost2010Prop31
280
     0
102
RTVSPost2010PropOp31
 70
     1
102
RTVSPost2010Prop32
280
     0
102
RTVSPost2010PropOp32
 70
     1
102
RTVSPost2010Prop33
280
     0
102
RTVSPost2010PropOp33
 70
     1
102
RTVSPost2010Prop34
280
     0
102
RTVSPost2010PropOp34
 70
     1
102
RTVSPost2010Prop35
280
     0
102
RTVSPost2010PropOp35
 70
     1
102
RTVSPost2010Prop36
280
     0
102
RTVSPost2010PropOp36
 70
     1
102
RTVSPost2010Prop37
 90
       50
102
RTVSPost2010PropOp37
 70
     1
102
RTVSPost2010Prop38
140
0.0
102
RTVSPost2010PropOp38
 70
     1
102
RTVSPost2010Prop39
140
1.0
102
RTVSPost2010PropOp39
 70
     1
102
RTVSPost2010Prop40
 90
        0
102
RTVSPost2010PropOp40
 70
     1
102
RTVSPost2010Prop41ColorIndex
 90
       18
102
RTVSPost2010Prop41ColorRGB
 90
        0
102
RTVSPost2010PropOp41
 70
     1
102
RTVSPost2010Prop42
 90
       50
102
RTVSPost2010PropOp42
 70
     1
102
RTVSPost2010Prop43
 90
        3
102
RTVSPost2010PropOp43
 70
     1
102
RTVSPost2010Prop44ColorIndex
 90
        5
102
RTVSPost2010Prop44ColorRGB
 90
      255
102
RTVSPost2010PropOp44
 70
     1
102
RTVSPost2010Prop45
280
     0
102
RTVSPost2010PropOp45
 70
     1
102
RTVSPost2010Prop46
 90
       50
102
RTVSPost2010PropOp46
 70
     1
102
RTVSPost2010Prop47
 90
       50
102
RTVSPost2010PropOp47
 70
     1
102
RTVSPost2010Prop48
 90
       50
102
RTVSPost2010PropOp48
 70
     1
102
RTVSPost2010Prop49
280
     0
102
RTVSPost2010PropOp49
 70
     1
102
RTVSPost2010Prop50
 90
       50
102
RTVSPost2010PropOp50
 70
     1
102
RTVSPost2010Prop51ColorIndex
 90
      256
102
RTVSPost2010Prop51ColorRGB
 90
-16777216
102
RTVSPost2010PropOp51
 70
     0
102
RTVSPost2010Prop52
140
1.0
102
RTVSPost2010PropOp52
 70
     0
102
RTVSPost2010Prop53
 90
        2
102
RTVSPost2010PropOp53
 70
     1
102
RTVSPost2010Prop54
  1
strokes_ogs.tif
102
RTVSPost2010PropOp54
 70
     1
102
RTVSPost2010Prop55
280
     0
102
RTVSPost2010PropOp55
 70
     1
102
RTVSPost2010Prop56
140
1.0
102
RTVSPost2010PropOp56
 70
     1
102
RTVSPost2010Prop57
140
1.0
102
RTVSPost2010PropOp57
 70
     1
102
RTVSPropertyOp0
 70
     1
102
RTVSPropertyOp1
 70
     1
102
RTVSPropertyOp2
 70
     1
102
RTVSPropertyOp3
 70
     1
102
RTVSPropertyOp4
 70
     1
102
RTVSPropertyOp5
 70
     1
102
RTVSPropertyOp6
 70
     1
102
RTVSPropertyOp7
 70
     1
102
RTVSPropertyOp8
 70
     1
102
RTVSPropertyOp9
 70
     1
102
RTVSPropertyOp10
 70
     1
102
RTVSPropertyOp11
 70
     1
102
RTVSPropertyOp12
 70
     1
102
RTVSPropertyOp13
 70
     1
102
RTVSPropertyOp14
 70
     1
102
RTVSPropertyOp15
 70
     1
102
RTVSPropertyOp16
 70
     1
102
RTVSPropertyOp17
 70
     1
102
RTVSPropertyOp18
 70
     1
102
RTVSPropertyOp19
 70
     1
102
RTVSPropertyOp20
 70
     1
102
RTVSPropertyOp21
 70
     1
102
RTVSPropertyOp22
 70
     1
102
RTVSPropertyOp23
 70
     1
102
RTVSPropertyOp24
 70
     1
102
RTVSPropertyOp25
 70
     1
102
RTVSPropertyOp26
 70
     1
102
RTVSPropertyOp27
 70
     1
102
RTVSPropertyOp28
 70
     1
102
RTVSPropertyOp29
 70
     1
102
RTVSPropertyOp30
 70
     1
102
RTVSPropertyOp31
 70
     1
102
RTVSPropertyOp32
 70
     1
102
RTVSPropertyOp33
 70
     1
102
RTVSPropertyOp34
 70
     1
102
RTVSPropertyOp35
 70
     1
102
RTVSPropertyOp36
 70
     1
102
RTVSPropertyOp37
 70
     1
102
RTVSPropertyOp38
 70
     1
102
RTVSPropertyOp39
 70
     1
102
RTVSPropertyOp40
 70
     1
102
RTVSPropertyOp41
 70
     1
102
RTVSPropertyOp42
 70
     1
102
RTVSPropertyOp43
 70
     1
102
RTVSPropertyOp44
 70
     1
102
RTVSPropertyOp45
 70
     1
102
RTVSPropertyOp46
 70
     1
102
RTVSPropertyOp47
 70
     1
102
RTVSPropertyOp48
 70
     1
102
RTVSPropertyOp49
 70
     1
102
RTVSPropertyOp50
 70
     1
102
RTVSPropertyOp51
 70
     0
102
RTVSPropertyOp52
 70
     0
102
RTVSPropertyOp53
 70
     1
102
RTVSPropertyOp54
 70
     1
102
RTVSPropertyOp55
 70
     1
102
RTVSPropertyOp56
 70
     1
102
RTVSPropertyOp57
 70
     1
102
RTVSPropertyOp58
 70
     1
102
RTVSPropertyOp59
 70
     1
102
RTVSPropertyOp60
 70
     1
102
RTVSPropertyOp61
 70
     1
102
RTVSPropertyOp62
 70
     1
  0
XRECORD
  5
13A2
102
{ACAD_REACTORS
330
13A1
102
}
330
13A1
100
AcDbXrecord
280
     1
102
RTVSPost2010Prop28
280
     0
102
RTVSPost2010PropOp28
 70
     1
102
RTVSPost2010Prop29
280
     1
102
RTVSPost2010PropOp29
 70
     1
102
RTVSPost2010Prop30
280
     1
102
RTVSPost2010PropOp30
 70
     1
102
RTVSPost2010Prop31
280
     0
102
RTVSPost2010PropOp31
 70
     1
102
RTVSPost2010Prop32
280
     0
102
RTVSPost2010PropOp32
 70
     1
102
RTVSPost2010Prop33
280
     0
102
RTVSPost2010PropOp33
 70
     1
102
RTVSPost2010Prop34
280
     0
102
RTVSPost2010PropOp34
 70
     1
102
RTVSPost2010Prop35
280
     0
102
RTVSPost2010PropOp35
 70
     1
102
RTVSPost2010Prop36
280
     0
102
RTVSPost2010PropOp36
 70
     1
102
RTVSPost2010Prop37
 90
       50
102
RTVSPost2010PropOp37
 70
     1
102
RTVSPost2010Prop38
140
0.0
102
RTVSPost2010PropOp38
 70
     1
102
RTVSPost2010Prop39
140
1.0
102
RTVSPost2010PropOp39
 70
     1
102
RTVSPost2010Prop40
 90
        0
102
RTVSPost2010PropOp40
 70
     1
102
RTVSPost2010Prop41ColorIndex
 90
       18
102
RTVSPost2010Prop41ColorRGB
 90
        0
102
RTVSPost2010PropOp41
 70
     1
102
RTVSPost2010Prop42
 90
       50
102
RTVSPost2010PropOp42
 70
     1
102
RTVSPost2010Prop43
 90
        3
102
RTVSPost2010PropOp43
 70
     1
102
RTVSPost2010Prop44ColorIndex
 90
        5
102
RTVSPost2010Prop44ColorRGB
 90
      255
102
RTVSPost2010PropOp44
 70
     1
102
RTVSPost2010Prop45
280
     0
102
RTVSPost2010PropOp45
 70
     1
102
RTVSPost2010Prop46
 90
       50
102
RTVSPost2010PropOp46
 70
     1
102
RTVSPost2010Prop47
 90
       50
102
RTVSPost2010PropOp47
 70
     1
102
RTVSPost2010Prop48
 90
       50
102
RTVSPost2010PropOp48
 70
     1
102
RTVSPost2010Prop49
280
     0
102
RTVSPost2010PropOp49
 70
     1
102
RTVSPost2010Prop50
 90
       50
102
RTVSPost2010PropOp50
 70
     1
102
RTVSPost2010Prop51ColorIndex
 90
      256
102
RTVSPost2010Prop51ColorRGB
 90
-16777216
102
RTVSPost2010PropOp51
 70
     0
102
RTVSPost2010Prop52
140
1.0
102
RTVSPost2010PropOp52
 70
     0
102
RTVSPost2010Prop53
 90
        2
102
RTVSPost2010PropOp53
 70
     1
102
RTVSPost2010Prop54
  1
strokes_ogs.tif
102
RTVSPost2010PropOp54
 70
     1
102
RTVSPost2010Prop55
280
     0
102
RTVSPost2010PropOp55
 70
     1
102
RTVSPost2010Prop56
140
1.0
102
RTVSPost2010PropOp56
 70
     1
102
RTVSPost2010Prop57
140
1.0
102
RTVSPost2010PropOp57
 70
     1
102
RTVSPropertyOp0
 70
     1
102
RTVSPropertyOp1
 70
     1
102
RTVSPropertyOp2
 70
     1
102
RTVSPropertyOp3
 70
     1
102
RTVSPropertyOp4
 70
     1
102
RTVSPropertyOp5
 70
     1
102
RTVSPropertyOp6
 70
     1
102
RTVSPropertyOp7
 70
     1
102
RTVSPropertyOp8
 70
     1
102
RTVSPropertyOp9
 70
     1
102
RTVSPropertyOp10
 70
     1
102
RTVSPropertyOp11
 70
     1
102
RTVSPropertyOp12
 70
     1
102
RTVSPropertyOp13
 70
     1
102
RTVSPropertyOp14
 70
     1
102
RTVSPropertyOp15
 70
     1
102
RTVSPropertyOp16
 70
     1
102
RTVSPropertyOp17
 70
     1
102
RTVSPropertyOp18
 70
     1
102
RTVSPropertyOp19
 70
     1
102
RTVSPropertyOp20
 70
     1
102
RTVSPropertyOp21
 70
     1
102
RTVSPropertyOp22
 70
     1
102
RTVSPropertyOp23
 70
     1
102
RTVSPropertyOp24
 70
     1
102
RTVSPropertyOp25
 70
     1
102
RTVSPropertyOp26
 70
     1
102
RTVSPropertyOp27
 70
     1
102
RTVSPropertyOp28
 70
     1
102
RTVSPropertyOp29
 70
     1
102
RTVSPropertyOp30
 70
     1
102
RTVSPropertyOp31
 70
     1
102
RTVSPropertyOp32
 70
     1
102
RTVSPropertyOp33
 70
     1
102
RTVSPropertyOp34
 70
     1
102
RTVSPropertyOp35
 70
     1
102
RTVSPropertyOp36
 70
     1
102
RTVSPropertyOp37
 70
     1
102
RTVSPropertyOp38
 70
     1
102
RTVSPropertyOp39
 70
     1
102
RTVSPropertyOp40
 70
     1
102
RTVSPropertyOp41
 70
     1
102
RTVSPropertyOp42
 70
     1
102
RTVSPropertyOp43
 70
     1
102
RTVSPropertyOp44
 70
     1
102
RTVSPropertyOp45
 70
     1
102
RTVSPropertyOp46
 70
     1
102
RTVSPropertyOp47
 70
     1
102
RTVSPropertyOp48
 70
     1
102
RTVSPropertyOp49
 70
     1
102
RTVSPropertyOp50
 70
     1
102
RTVSPropertyOp51
 70
     0
102
RTVSPropertyOp52
 70
     0
102
RTVSPropertyOp53
 70
     1
102
RTVSPropertyOp54
 70
     1
102
RTVSPropertyOp55
 70
     1
102
RTVSPropertyOp56
 70
     1
102
RTVSPropertyOp57
 70
     1
102
RTVSPropertyOp58
 70
     1
102
RTVSPropertyOp59
 70
     1
102
RTVSPropertyOp60
 70
     1
102
RTVSPropertyOp61
 70
     1
102
RTVSPropertyOp62
 70
     1
  0
XRECORD
  5
13BE
102
{ACAD_REACTORS
330
13BD
102
}
330
13BD
100
AcDbXrecord
280
     1
102
RTVSPost2010Prop28
280
     0
102
RTVSPost2010PropOp28
 70
     1
102
RTVSPost2010Prop29
280
     1
102
RTVSPost2010PropOp29
 70
     1
102
RTVSPost2010Prop30
280
     1
102
RTVSPost2010PropOp30
 70
     1
102
RTVSPost2010Prop31
280
     0
102
RTVSPost2010PropOp31
 70
     1
102
RTVSPost2010Prop32
280
     0
102
RTVSPost2010PropOp32
 70
     1
102
RTVSPost2010Prop33
280
     0
102
RTVSPost2010PropOp33
 70
     1
102
RTVSPost2010Prop34
280
     0
102
RTVSPost2010PropOp34
 70
     1
102
RTVSPost2010Prop35
280
     0
102
RTVSPost2010PropOp35
 70
     1
102
RTVSPost2010Prop36
280
     0
102
RTVSPost2010PropOp36
 70
     1
102
RTVSPost2010Prop37
 90
       50
102
RTVSPost2010PropOp37
 70
     1
102
RTVSPost2010Prop38
140
0.0
102
RTVSPost2010PropOp38
 70
     1
102
RTVSPost2010Prop39
140
1.0
102
RTVSPost2010PropOp39
 70
     1
102
RTVSPost2010Prop40
 90
        0
102
RTVSPost2010PropOp40
 70
     1
102
RTVSPost2010Prop41ColorIndex
 90
       18
102
RTVSPost2010Prop41ColorRGB
 90
        0
102
RTVSPost2010PropOp41
 70
     1
102
RTVSPost2010Prop42
 90
       50
102
RTVSPost2010PropOp42
 70
     1
102
RTVSPost2010Prop43
 90
        3
102
RTVSPost2010PropOp43
 70
     1
102
RTVSPost2010Prop44ColorIndex
 90
        5
102
RTVSPost2010Prop44ColorRGB
 90
      255
102
RTVSPost2010PropOp44
 70
     1
102
RTVSPost2010Prop45
280
     0
102
RTVSPost2010PropOp45
 70
     1
102
RTVSPost2010Prop46
 90
       50
102
RTVSPost2010PropOp46
 70
     1
102
RTVSPost2010Prop47
 90
       50
102
RTVSPost2010PropOp47
 70
     1
102
RTVSPost2010Prop48
 90
       50
102
RTVSPost2010PropOp48
 70
     1
102
RTVSPost2010Prop49
280
     0
102
RTVSPost2010PropOp49
 70
     1
102
RTVSPost2010Prop50
 90
       50
102
RTVSPost2010PropOp50
 70
     1
102
RTVSPost2010Prop51ColorIndex
 90
      256
102
RTVSPost2010Prop51ColorRGB
 90
-16777216
102
RTVSPost2010PropOp51
 70
     0
102
RTVSPost2010Prop52
140
1.0
102
RTVSPost2010PropOp52
 70
     0
102
RTVSPost2010Prop53
 90
        2
102
RTVSPost2010PropOp53
 70
     1
102
RTVSPost2010Prop54
  1
strokes_ogs.tif
102
RTVSPost2010PropOp54
 70
     1
102
RTVSPost2010Prop55
280
     0
102
RTVSPost2010PropOp55
 70
     1
102
RTVSPost2010Prop56
140
1.0
102
RTVSPost2010PropOp56
 70
     1
102
RTVSPost2010Prop57
140
1.0
102
RTVSPost2010PropOp57
 70
     1
102
RTVSPropertyOp0
 70
     1
102
RTVSPropertyOp1
 70
     1
102
RTVSPropertyOp2
 70
     1
102
RTVSPropertyOp3
 70
     1
102
RTVSPropertyOp4
 70
     1
102
RTVSPropertyOp5
 70
     1
102
RTVSPropertyOp6
 70
     1
102
RTVSPropertyOp7
 70
     1
102
RTVSPropertyOp8
 70
     1
102
RTVSPropertyOp9
 70
     1
102
RTVSPropertyOp10
 70
     1
102
RTVSPropertyOp11
 70
     1
102
RTVSPropertyOp12
 70
     1
102
RTVSPropertyOp13
 70
     1
102
RTVSPropertyOp14
 70
     1
102
RTVSPropertyOp15
 70
     1
102
RTVSPropertyOp16
 70
     1
102
RTVSPropertyOp17
 70
     1
102
RTVSPropertyOp18
 70
     1
102
RTVSPropertyOp19
 70
     1
102
RTVSPropertyOp20
 70
     1
102
RTVSPropertyOp21
 70
     1
102
RTVSPropertyOp22
 70
     1
102
RTVSPropertyOp23
 70
     1
102
RTVSPropertyOp24
 70
     1
102
RTVSPropertyOp25
 70
     1
102
RTVSPropertyOp26
 70
     1
102
RTVSPropertyOp27
 70
     1
102
RTVSPropertyOp28
 70
     1
102
RTVSPropertyOp29
 70
     1
102
RTVSPropertyOp30
 70
     1
102
RTVSPropertyOp31
 70
     1
102
RTVSPropertyOp32
 70
     1
102
RTVSPropertyOp33
 70
     1
102
RTVSPropertyOp34
 70
     1
102
RTVSPropertyOp35
 70
     1
102
RTVSPropertyOp36
 70
     1
102
RTVSPropertyOp37
 70
     1
102
RTVSPropertyOp38
 70
     1
102
RTVSPropertyOp39
 70
     1
102
RTVSPropertyOp40
 70
     1
102
RTVSPropertyOp41
 70
     1
102
RTVSPropertyOp42
 70
     1
102
RTVSPropertyOp43
 70
     1
102
RTVSPropertyOp44
 70
     1
102
RTVSPropertyOp45
 70
     1
102
RTVSPropertyOp46
 70
     1
102
RTVSPropertyOp47
 70
     1
102
RTVSPropertyOp48
 70
     1
102
RTVSPropertyOp49
 70
     1
102
RTVSPropertyOp50
 70
     1
102
RTVSPropertyOp51
 70
     0
102
RTVSPropertyOp52
 70
     0
102
RTVSPropertyOp53
 70
     1
102
RTVSPropertyOp54
 70
     1
102
RTVSPropertyOp55
 70
     1
102
RTVSPropertyOp56
 70
     1
102
RTVSPropertyOp57
 70
     1
102
RTVSPropertyOp58
 70
     1
102
RTVSPropertyOp59
 70
     1
102
RTVSPropertyOp60
 70
     1
102
RTVSPropertyOp61
 70
     1
102
RTVSPropertyOp62
 70
     1
  0
XRECORD
  5
13CA
102
{ACAD_REACTORS
330
13C9
102
}
330
13C9
100
AcDbXrecord
280
     1
102
RTVSPost2010Prop28
280
     0
102
RTVSPost2010PropOp28
 70
     1
102
RTVSPost2010Prop29
280
     1
102
RTVSPost2010PropOp29
 70
     1
102
RTVSPost2010Prop30
280
     1
102
RTVSPost2010PropOp30
 70
     1
102
RTVSPost2010Prop31
280
     0
102
RTVSPost2010PropOp31
 70
     1
102
RTVSPost2010Prop32
280
     0
102
RTVSPost2010PropOp32
 70
     1
102
RTVSPost2010Prop33
280
     0
102
RTVSPost2010PropOp33
 70
     1
102
RTVSPost2010Prop34
280
     0
102
RTVSPost2010PropOp34
 70
     1
102
RTVSPost2010Prop35
280
     0
102
RTVSPost2010PropOp35
 70
     1
102
RTVSPost2010Prop36
280
     0
102
RTVSPost2010PropOp36
 70
     1
102
RTVSPost2010Prop37
 90
       50
102
RTVSPost2010PropOp37
 70
     0
102
RTVSPost2010Prop38
140
0.0
102
RTVSPost2010PropOp38
 70
     0
102
RTVSPost2010Prop39
140
1.0
102
RTVSPost2010PropOp39
 70
     0
102
RTVSPost2010Prop40
 90
        0
102
RTVSPost2010PropOp40
 70
     0
102
RTVSPost2010Prop41ColorIndex
 90
       18
102
RTVSPost2010Prop41ColorRGB
 90
        0
102
RTVSPost2010PropOp41
 70
     0
102
RTVSPost2010Prop42
 90
       50
102
RTVSPost2010PropOp42
 70
     0
102
RTVSPost2010Prop43
 90
        3
102
RTVSPost2010PropOp43
 70
     0
102
RTVSPost2010Prop44ColorIndex
 90
        5
102
RTVSPost2010Prop44ColorRGB
 90
      255
102
RTVSPost2010PropOp44
 70
     0
102
RTVSPost2010Prop45
280
     0
102
RTVSPost2010PropOp45
 70
     1
102
RTVSPost2010Prop46
 90
       50
102
RTVSPost2010PropOp46
 70
     0
102
RTVSPost2010Prop47
 90
       50
102
RTVSPost2010PropOp47
 70
     0
102
RTVSPost2010Prop48
 90
       50
102
RTVSPost2010PropOp48
 70
     0
102
RTVSPost2010Prop49
280
     0
102
RTVSPost2010PropOp49
 70
     1
102
RTVSPost2010Prop50
 90
       50
102
RTVSPost2010PropOp50
 70
     0
102
RTVSPost2010Prop51ColorIndex
 90
      256
102
RTVSPost2010Prop51ColorRGB
 90
-16777216
102
RTVSPost2010PropOp51
 70
     0
102
RTVSPost2010Prop52
140
1.0
102
RTVSPost2010PropOp52
 70
     0
102
RTVSPost2010Prop53
 90
        2
102
RTVSPost2010PropOp53
 70
     0
102
RTVSPost2010Prop54
  1
strokes_ogs.tif
102
RTVSPost2010PropOp54
 70
     0
102
RTVSPost2010Prop55
280
     0
102
RTVSPost2010PropOp55
 70
     1
102
RTVSPost2010Prop56
140
1.0
102
RTVSPost2010PropOp56
 70
     0
102
RTVSPost2010Prop57
140
1.0
102
RTVSPost2010PropOp57
 70
     0
102
RTVSPropertyOp0
 70
     0
102
RTVSPropertyOp1
 70
     0
102
RTVSPropertyOp2
 70
     0
102
RTVSPropertyOp3
 70
     0
102
RTVSPropertyOp4
 70
     0
102
RTVSPropertyOp5
 70
     0
102
RTVSPropertyOp6
 70
     0
102
RTVSPropertyOp7
 70
     0
102
RTVSPropertyOp8
 70
     0
102
RTVSPropertyOp9
 70
     0
102
RTVSPropertyOp10
 70
     0
102
RTVSPropertyOp11
 70
     0
102
RTVSPropertyOp12
 70
     0
102
RTVSPropertyOp13
 70
     0
102
RTVSPropertyOp14
 70
     2
102
RTVSPropertyOp15
 70
     0
102
RTVSPropertyOp16
 70
     0
102
RTVSPropertyOp17
 70
     0
102
RTVSPropertyOp18
 70
     0
102
RTVSPropertyOp19
 70
     0
102
RTVSPropertyOp20
 70
     0
102
RTVSPropertyOp21
 70
     0
102
RTVSPropertyOp22
 70
     0
102
RTVSPropertyOp23
 70
     0
102
RTVSPropertyOp24
 70
     0
102
RTVSPropertyOp25
 70
     0
102
RTVSPropertyOp26
 70
     0
102
RTVSPropertyOp27
 70
     0
102
RTVSPropertyOp28
 70
     1
102
RTVSPropertyOp29
 70
     1
102
RTVSPropertyOp30
 70
     1
102
RTVSPropertyOp31
 70
     1
102
RTVSPropertyOp32
 70
     1
102
RTVSPropertyOp33
 70
     1
102
RTVSPropertyOp34
 70
     1
102
RTVSPropertyOp35
 70
     1
102
RTVSPropertyOp36
 70
     1
102
RTVSPropertyOp37
 70
     0
102
RTVSPropertyOp38
 70
     0
102
RTVSPropertyOp39
 70
     0
102
RTVSPropertyOp40
 70
     0
102
RTVSPropertyOp41
 70
     0
102
RTVSPropertyOp42
 70
     0
102
RTVSPropertyOp43
 70
     0
102
RTVSPropertyOp44
 70
     0
102
RTVSPropertyOp45
 70
     1
102
RTVSPropertyOp46
 70
     0
102
RTVSPropertyOp47
 70
     0
102
RTVSPropertyOp48
 70
     0
102
RTVSPropertyOp49
 70
     1
102
RTVSPropertyOp50
 70
     0
102
RTVSPropertyOp51
 70
     0
102
RTVSPropertyOp52
 70
     0
102
RTVSPropertyOp53
 70
     0
102
RTVSPropertyOp54
 70
     0
102
RTVSPropertyOp55
 70
     1
102
RTVSPropertyOp56
 70
     0
102
RTVSPropertyOp57
 70
     0
102
RTVSPropertyOp58
 70
     0
102
RTVSPropertyOp59
 70
     0
102
RTVSPropertyOp60
 70
     0
102
RTVSPropertyOp61
 70
     0
102
RTVSPropertyOp62
 70
     0
  0
XRECORD
  5
13B6
102
{ACAD_REACTORS
330
13B5
102
}
330
13B5
100
AcDbXrecord
280
     1
102
RTVSPost2010Prop28
280
     0
102
RTVSPost2010PropOp28
 70
     1
102
RTVSPost2010Prop29
280
     1
102
RTVSPost2010PropOp29
 70
     1
102
RTVSPost2010Prop30
280
     1
102
RTVSPost2010PropOp30
 70
     1
102
RTVSPost2010Prop31
280
     0
102
RTVSPost2010PropOp31
 70
     1
102
RTVSPost2010Prop32
280
     0
102
RTVSPost2010PropOp32
 70
     1
102
RTVSPost2010Prop33
280
     0
102
RTVSPost2010PropOp33
 70
     1
102
RTVSPost2010Prop34
280
     0
102
RTVSPost2010PropOp34
 70
     1
102
RTVSPost2010Prop35
280
     0
102
RTVSPost2010PropOp35
 70
     1
102
RTVSPost2010Prop36
280
     0
102
RTVSPost2010PropOp36
 70
     1
102
RTVSPost2010Prop37
 90
       50
102
RTVSPost2010PropOp37
 70
     1
102
RTVSPost2010Prop38
140
0.0
102
RTVSPost2010PropOp38
 70
     1
102
RTVSPost2010Prop39
140
1.0
102
RTVSPost2010PropOp39
 70
     1
102
RTVSPost2010Prop40
 90
        0
102
RTVSPost2010PropOp40
 70
     1
102
RTVSPost2010Prop41ColorIndex
 90
       18
102
RTVSPost2010Prop41ColorRGB
 90
        0
102
RTVSPost2010PropOp41
 70
     1
102
RTVSPost2010Prop42
 90
       50
102
RTVSPost2010PropOp42
 70
     1
102
RTVSPost2010Prop43
 90
        3
102
RTVSPost2010PropOp43
 70
     1
102
RTVSPost2010Prop44ColorIndex
 90
        5
102
RTVSPost2010Prop44ColorRGB
 90
      255
102
RTVSPost2010PropOp44
 70
     1
102
RTVSPost2010Prop45
280
     0
102
RTVSPost2010PropOp45
 70
     1
102
RTVSPost2010Prop46
 90
       50
102
RTVSPost2010PropOp46
 70
     1
102
RTVSPost2010Prop47
 90
       50
102
RTVSPost2010PropOp47
 70
     1
102
RTVSPost2010Prop48
 90
       50
102
RTVSPost2010PropOp48
 70
     1
102
RTVSPost2010Prop49
280
     0
102
RTVSPost2010PropOp49
 70
     1
102
RTVSPost2010Prop50
 90
       50
102
RTVSPost2010PropOp50
 70
     1
102
RTVSPost2010Prop51ColorIndex
 90
      256
102
RTVSPost2010Prop51ColorRGB
 90
-16777216
102
RTVSPost2010PropOp51
 70
     0
102
RTVSPost2010Prop52
140
1.0
102
RTVSPost2010PropOp52
 70
     0
102
RTVSPost2010Prop53
 90
        2
102
RTVSPost2010PropOp53
 70
     1
102
RTVSPost2010Prop54
  1
strokes_ogs.tif
102
RTVSPost2010PropOp54
 70
     1
102
RTVSPost2010Prop55
280
     0
102
RTVSPost2010PropOp55
 70
     1
102
RTVSPost2010Prop56
140
1.0
102
RTVSPost2010PropOp56
 70
     1
102
RTVSPost2010Prop57
140
1.0
102
RTVSPost2010PropOp57
 70
     1
102
RTVSPropertyOp0
 70
     1
102
RTVSPropertyOp1
 70
     1
102
RTVSPropertyOp2
 70
     1
102
RTVSPropertyOp3
 70
     1
102
RTVSPropertyOp4
 70
     1
102
RTVSPropertyOp5
 70
     1
102
RTVSPropertyOp6
 70
     1
102
RTVSPropertyOp7
 70
     1
102
RTVSPropertyOp8
 70
     1
102
RTVSPropertyOp9
 70
     1
102
RTVSPropertyOp10
 70
     1
102
RTVSPropertyOp11
 70
     1
102
RTVSPropertyOp12
 70
     1
102
RTVSPropertyOp13
 70
     1
102
RTVSPropertyOp14
 70
     1
102
RTVSPropertyOp15
 70
     1
102
RTVSPropertyOp16
 70
     1
102
RTVSPropertyOp17
 70
     1
102
RTVSPropertyOp18
 70
     1
102
RTVSPropertyOp19
 70
     1
102
RTVSPropertyOp20
 70
     1
102
RTVSPropertyOp21
 70
     1
102
RTVSPropertyOp22
 70
     1
102
RTVSPropertyOp23
 70
     1
102
RTVSPropertyOp24
 70
     1
102
RTVSPropertyOp25
 70
     1
102
RTVSPropertyOp26
 70
     1
102
RTVSPropertyOp27
 70
     1
102
RTVSPropertyOp28
 70
     1
102
RTVSPropertyOp29
 70
     1
102
RTVSPropertyOp30
 70
     1
102
RTVSPropertyOp31
 70
     1
102
RTVSPropertyOp32
 70
     1
102
RTVSPropertyOp33
 70
     1
102
RTVSPropertyOp34
 70
     1
102
RTVSPropertyOp35
 70
     1
102
RTVSPropertyOp36
 70
     1
102
RTVSPropertyOp37
 70
     1
102
RTVSPropertyOp38
 70
     1
102
RTVSPropertyOp39
 70
     1
102
RTVSPropertyOp40
 70
     1
102
RTVSPropertyOp41
 70
     1
102
RTVSPropertyOp42
 70
     1
102
RTVSPropertyOp43
 70
     1
102
RTVSPropertyOp44
 70
     1
102
RTVSPropertyOp45
 70
     1
102
RTVSPropertyOp46
 70
     1
102
RTVSPropertyOp47
 70
     1
102
RTVSPropertyOp48
 70
     1
102
RTVSPropertyOp49
 70
     1
102
RTVSPropertyOp50
 70
     1
102
RTVSPropertyOp51
 70
     0
102
RTVSPropertyOp52
 70
     0
102
RTVSPropertyOp53
 70
     1
102
RTVSPropertyOp54
 70
     1
102
RTVSPropertyOp55
 70
     1
102
RTVSPropertyOp56
 70
     1
102
RTVSPropertyOp57
 70
     1
102
RTVSPropertyOp58
 70
     1
102
RTVSPropertyOp59
 70
     1
102
RTVSPropertyOp60
 70
     1
102
RTVSPropertyOp61
 70
     1
102
RTVSPropertyOp62
 70
     1
  0
XRECORD
  5
13CC
102
{ACAD_REACTORS
330
13CB
102
}
330
13CB
100
AcDbXrecord
280
     1
102
RTVSPost2010Prop28
280
     0
102
RTVSPost2010PropOp28
 70
     1
102
RTVSPost2010Prop29
280
     1
102
RTVSPost2010PropOp29
 70
     1
102
RTVSPost2010Prop30
280
     1
102
RTVSPost2010PropOp30
 70
     1
102
RTVSPost2010Prop31
280
     0
102
RTVSPost2010PropOp31
 70
     1
102
RTVSPost2010Prop32
280
     0
102
RTVSPost2010PropOp32
 70
     1
102
RTVSPost2010Prop33
280
     0
102
RTVSPost2010PropOp33
 70
     1
102
RTVSPost2010Prop34
280
     0
102
RTVSPost2010PropOp34
 70
     1
102
RTVSPost2010Prop35
280
     0
102
RTVSPost2010PropOp35
 70
     1
102
RTVSPost2010Prop36
280
     0
102
RTVSPost2010PropOp36
 70
     1
102
RTVSPost2010Prop37
 90
       50
102
RTVSPost2010PropOp37
 70
     0
102
RTVSPost2010Prop38
140
0.0
102
RTVSPost2010PropOp38
 70
     0
102
RTVSPost2010Prop39
140
1.0
102
RTVSPost2010PropOp39
 70
     0
102
RTVSPost2010Prop40
 90
        0
102
RTVSPost2010PropOp40
 70
     0
102
RTVSPost2010Prop41ColorIndex
 90
       18
102
RTVSPost2010Prop41ColorRGB
 90
        0
102
RTVSPost2010PropOp41
 70
     0
102
RTVSPost2010Prop42
 90
       50
102
RTVSPost2010PropOp42
 70
     0
102
RTVSPost2010Prop43
 90
        3
102
RTVSPost2010PropOp43
 70
     0
102
RTVSPost2010Prop44ColorIndex
 90
        5
102
RTVSPost2010Prop44ColorRGB
 90
      255
102
RTVSPost2010PropOp44
 70
     0
102
RTVSPost2010Prop45
280
     0
102
RTVSPost2010PropOp45
 70
     1
102
RTVSPost2010Prop46
 90
       50
102
RTVSPost2010PropOp46
 70
     0
102
RTVSPost2010Prop47
 90
       50
102
RTVSPost2010PropOp47
 70
     0
102
RTVSPost2010Prop48
 90
       50
102
RTVSPost2010PropOp48
 70
     0
102
RTVSPost2010Prop49
280
     0
102
RTVSPost2010PropOp49
 70
     1
102
RTVSPost2010Prop50
 90
       50
102
RTVSPost2010PropOp50
 70
     0
102
RTVSPost2010Prop51ColorIndex
 90
      256
102
RTVSPost2010Prop51ColorRGB
 90
-16777216
102
RTVSPost2010PropOp51
 70
     0
102
RTVSPost2010Prop52
140
1.0
102
RTVSPost2010PropOp52
 70
     0
102
RTVSPost2010Prop53
 90
        2
102
RTVSPost2010PropOp53
 70
     0
102
RTVSPost2010Prop54
  1
strokes_ogs.tif
102
RTVSPost2010PropOp54
 70
     0
102
RTVSPost2010Prop55
280
     0
102
RTVSPost2010PropOp55
 70
     1
102
RTVSPost2010Prop56
140
1.0
102
RTVSPost2010PropOp56
 70
     0
102
RTVSPost2010Prop57
140
1.0
102
RTVSPost2010PropOp57
 70
     0
102
RTVSPropertyOp0
 70
     0
102
RTVSPropertyOp1
 70
     0
102
RTVSPropertyOp2
 70
     0
102
RTVSPropertyOp3
 70
     0
102
RTVSPropertyOp4
 70
     0
102
RTVSPropertyOp5
 70
     0
102
RTVSPropertyOp6
 70
     0
102
RTVSPropertyOp7
 70
     0
102
RTVSPropertyOp8
 70
     0
102
RTVSPropertyOp9
 70
     0
102
RTVSPropertyOp10
 70
     0
102
RTVSPropertyOp11
 70
     0
102
RTVSPropertyOp12
 70
     0
102
RTVSPropertyOp13
 70
     0
102
RTVSPropertyOp14
 70
     2
102
RTVSPropertyOp15
 70
     0
102
RTVSPropertyOp16
 70
     0
102
RTVSPropertyOp17
 70
     0
102
RTVSPropertyOp18
 70
     0
102
RTVSPropertyOp19
 70
     0
102
RTVSPropertyOp20
 70
     0
102
RTVSPropertyOp21
 70
     0
102
RTVSPropertyOp22
 70
     0
102
RTVSPropertyOp23
 70
     0
102
RTVSPropertyOp24
 70
     0
102
RTVSPropertyOp25
 70
     0
102
RTVSPropertyOp26
 70
     0
102
RTVSPropertyOp27
 70
     0
102
RTVSPropertyOp28
 70
     1
102
RTVSPropertyOp29
 70
     1
102
RTVSPropertyOp30
 70
     1
102
RTVSPropertyOp31
 70
     1
102
RTVSPropertyOp32
 70
     1
102
RTVSPropertyOp33
 70
     1
102
RTVSPropertyOp34
 70
     1
102
RTVSPropertyOp35
 70
     1
102
RTVSPropertyOp36
 70
     1
102
RTVSPropertyOp37
 70
     0
102
RTVSPropertyOp38
 70
     0
102
RTVSPropertyOp39
 70
     0
102
RTVSPropertyOp40
 70
     0
102
RTVSPropertyOp41
 70
     0
102
RTVSPropertyOp42
 70
     0
102
RTVSPropertyOp43
 70
     0
102
RTVSPropertyOp44
 70
     0
102
RTVSPropertyOp45
 70
     1
102
RTVSPropertyOp46
 70
     0
102
RTVSPropertyOp47
 70
     0
102
RTVSPropertyOp48
 70
     0
102
RTVSPropertyOp49
 70
     1
102
RTVSPropertyOp50
 70
     0
102
RTVSPropertyOp51
 70
     0
102
RTVSPropertyOp52
 70
     0
102
RTVSPropertyOp53
 70
     0
102
RTVSPropertyOp54
 70
     0
102
RTVSPropertyOp55
 70
     1
102
RTVSPropertyOp56
 70
     0
102
RTVSPropertyOp57
 70
     0
102
RTVSPropertyOp58
 70
     0
102
RTVSPropertyOp59
 70
     0
102
RTVSPropertyOp60
 70
     0
102
RTVSPropertyOp61
 70
     0
102
RTVSPropertyOp62
 70
     0
  0
XRECORD
  5
13AE
102
{ACAD_REACTORS
330
13AD
102
}
330
13AD
100
AcDbXrecord
280
     1
102
RTVSPost2010Prop28
280
     0
102
RTVSPost2010PropOp28
 70
     1
102
RTVSPost2010Prop29
280
     1
102
RTVSPost2010PropOp29
 70
     1
102
RTVSPost2010Prop30
280
     1
102
RTVSPost2010PropOp30
 70
     1
102
RTVSPost2010Prop31
280
     0
102
RTVSPost2010PropOp31
 70
     1
102
RTVSPost2010Prop32
280
     0
102
RTVSPost2010PropOp32
 70
     1
102
RTVSPost2010Prop33
280
     0
102
RTVSPost2010PropOp33
 70
     1
102
RTVSPost2010Prop34
280
     0
102
RTVSPost2010PropOp34
 70
     1
102
RTVSPost2010Prop35
280
     0
102
RTVSPost2010PropOp35
 70
     1
102
RTVSPost2010Prop36
280
     0
102
RTVSPost2010PropOp36
 70
     1
102
RTVSPost2010Prop37
 90
       50
102
RTVSPost2010PropOp37
 70
     1
102
RTVSPost2010Prop38
140
0.0
102
RTVSPost2010PropOp38
 70
     1
102
RTVSPost2010Prop39
140
1.0
102
RTVSPost2010PropOp39
 70
     1
102
RTVSPost2010Prop40
 90
        0
102
RTVSPost2010PropOp40
 70
     1
102
RTVSPost2010Prop41ColorIndex
 90
       18
102
RTVSPost2010Prop41ColorRGB
 90
        0
102
RTVSPost2010PropOp41
 70
     1
102
RTVSPost2010Prop42
 90
       50
102
RTVSPost2010PropOp42
 70
     1
102
RTVSPost2010Prop43
 90
        3
102
RTVSPost2010PropOp43
 70
     1
102
RTVSPost2010Prop44ColorIndex
 90
        5
102
RTVSPost2010Prop44ColorRGB
 90
      255
102
RTVSPost2010PropOp44
 70
     1
102
RTVSPost2010Prop45
280
     0
102
RTVSPost2010PropOp45
 70
     1
102
RTVSPost2010Prop46
 90
       50
102
RTVSPost2010PropOp46
 70
     1
102
RTVSPost2010Prop47
 90
       50
102
RTVSPost2010PropOp47
 70
     1
102
RTVSPost2010Prop48
 90
       50
102
RTVSPost2010PropOp48
 70
     1
102
RTVSPost2010Prop49
280
     0
102
RTVSPost2010PropOp49
 70
     1
102
RTVSPost2010Prop50
 90
       50
102
RTVSPost2010PropOp50
 70
     1
102
RTVSPost2010Prop51ColorIndex
 90
      256
102
RTVSPost2010Prop51ColorRGB
 90
-16777216
102
RTVSPost2010PropOp51
 70
     0
102
RTVSPost2010Prop52
140
1.0
102
RTVSPost2010PropOp52
 70
     0
102
RTVSPost2010Prop53
 90
        2
102
RTVSPost2010PropOp53
 70
     1
102
RTVSPost2010Prop54
  1
strokes_ogs.tif
102
RTVSPost2010PropOp54
 70
     1
102
RTVSPost2010Prop55
280
     0
102
RTVSPost2010PropOp55
 70
     1
102
RTVSPost2010Prop56
140
1.0
102
RTVSPost2010PropOp56
 70
     1
102
RTVSPost2010Prop57
140
1.0
102
RTVSPost2010PropOp57
 70
     1
102
RTVSPropertyOp0
 70
     1
102
RTVSPropertyOp1
 70
     1
102
RTVSPropertyOp2
 70
     1
102
RTVSPropertyOp3
 70
     1
102
RTVSPropertyOp4
 70
     1
102
RTVSPropertyOp5
 70
     1
102
RTVSPropertyOp6
 70
     1
102
RTVSPropertyOp7
 70
     1
102
RTVSPropertyOp8
 70
     1
102
RTVSPropertyOp9
 70
     1
102
RTVSPropertyOp10
 70
     1
102
RTVSPropertyOp11
 70
     1
102
RTVSPropertyOp12
 70
     1
102
RTVSPropertyOp13
 70
     1
102
RTVSPropertyOp14
 70
     1
102
RTVSPropertyOp15
 70
     1
102
RTVSPropertyOp16
 70
     1
102
RTVSPropertyOp17
 70
     1
102
RTVSPropertyOp18
 70
     1
102
RTVSPropertyOp19
 70
     1
102
RTVSPropertyOp20
 70
     1
102
RTVSPropertyOp21
 70
     1
102
RTVSPropertyOp22
 70
     1
102
RTVSPropertyOp23
 70
     1
102
RTVSPropertyOp24
 70
     1
102
RTVSPropertyOp25
 70
     1
102
RTVSPropertyOp26
 70
     1
102
RTVSPropertyOp27
 70
     1
102
RTVSPropertyOp28
 70
     1
102
RTVSPropertyOp29
 70
     1
102
RTVSPropertyOp30
 70
     1
102
RTVSPropertyOp31
 70
     1
102
RTVSPropertyOp32
 70
     1
102
RTVSPropertyOp33
 70
     1
102
RTVSPropertyOp34
 70
     1
102
RTVSPropertyOp35
 70
     1
102
RTVSPropertyOp36
 70
     1
102
RTVSPropertyOp37
 70
     1
102
RTVSPropertyOp38
 70
     1
102
RTVSPropertyOp39
 70
     1
102
RTVSPropertyOp40
 70
     1
102
RTVSPropertyOp41
 70
     1
102
RTVSPropertyOp42
 70
     1
102
RTVSPropertyOp43
 70
     1
102
RTVSPropertyOp44
 70
     1
102
RTVSPropertyOp45
 70
     1
102
RTVSPropertyOp46
 70
     1
102
RTVSPropertyOp47
 70
     1
102
RTVSPropertyOp48
 70
     1
102
RTVSPropertyOp49
 70
     1
102
RTVSPropertyOp50
 70
     1
102
RTVSPropertyOp51
 70
     0
102
RTVSPropertyOp52
 70
     0
102
RTVSPropertyOp53
 70
     1
102
RTVSPropertyOp54
 70
     1
102
RTVSPropertyOp55
 70
     1
102
RTVSPropertyOp56
 70
     1
102
RTVSPropertyOp57
 70
     1
102
RTVSPropertyOp58
 70
     1
102
RTVSPropertyOp59
 70
     1
102
RTVSPropertyOp60
 70
     1
102
RTVSPropertyOp61
 70
     1
102
RTVSPropertyOp62
 70
     1
  0
XRECORD
  5
13C8
102
{ACAD_REACTORS
330
13C7
102
}
330
13C7
100
AcDbXrecord
280
     1
102
RTVSPost2010Prop28
280
     0
102
RTVSPost2010PropOp28
 70
     1
102
RTVSPost2010Prop29
280
     1
102
RTVSPost2010PropOp29
 70
     1
102
RTVSPost2010Prop30
280
     1
102
RTVSPost2010PropOp30
 70
     1
102
RTVSPost2010Prop31
280
     0
102
RTVSPost2010PropOp31
 70
     1
102
RTVSPost2010Prop32
280
     0
102
RTVSPost2010PropOp32
 70
     1
102
RTVSPost2010Prop33
280
     0
102
RTVSPost2010PropOp33
 70
     1
102
RTVSPost2010Prop34
280
     0
102
RTVSPost2010PropOp34
 70
     1
102
RTVSPost2010Prop35
280
     0
102
RTVSPost2010PropOp35
 70
     1
102
RTVSPost2010Prop36
280
     0
102
RTVSPost2010PropOp36
 70
     1
102
RTVSPost2010Prop37
 90
       50
102
RTVSPost2010PropOp37
 70
     1
102
RTVSPost2010Prop38
140
0.0
102
RTVSPost2010PropOp38
 70
     1
102
RTVSPost2010Prop39
140
1.0
102
RTVSPost2010PropOp39
 70
     1
102
RTVSPost2010Prop40
 90
        0
102
RTVSPost2010PropOp40
 70
     1
102
RTVSPost2010Prop41ColorIndex
 90
       18
102
RTVSPost2010Prop41ColorRGB
 90
        0
102
RTVSPost2010PropOp41
 70
     1
102
RTVSPost2010Prop42
 90
       50
102
RTVSPost2010PropOp42
 70
     1
102
RTVSPost2010Prop43
 90
        3
102
RTVSPost2010PropOp43
 70
     1
102
RTVSPost2010Prop44ColorIndex
 90
        5
102
RTVSPost2010Prop44ColorRGB
 90
      255
102
RTVSPost2010PropOp44
 70
     1
102
RTVSPost2010Prop45
280
     0
102
RTVSPost2010PropOp45
 70
     1
102
RTVSPost2010Prop46
 90
       50
102
RTVSPost2010PropOp46
 70
     1
102
RTVSPost2010Prop47
 90
       50
102
RTVSPost2010PropOp47
 70
     1
102
RTVSPost2010Prop48
 90
       50
102
RTVSPost2010PropOp48
 70
     1
102
RTVSPost2010Prop49
280
     0
102
RTVSPost2010PropOp49
 70
     1
102
RTVSPost2010Prop50
 90
       50
102
RTVSPost2010PropOp50
 70
     1
102
RTVSPost2010Prop51ColorIndex
 90
      256
102
RTVSPost2010Prop51ColorRGB
 90
-16777216
102
RTVSPost2010PropOp51
 70
     0
102
RTVSPost2010Prop52
140
1.0
102
RTVSPost2010PropOp52
 70
     0
102
RTVSPost2010Prop53
 90
        2
102
RTVSPost2010PropOp53
 70
     1
102
RTVSPost2010Prop54
  1
strokes_ogs.tif
102
RTVSPost2010PropOp54
 70
     1
102
RTVSPost2010Prop55
280
     0
102
RTVSPost2010PropOp55
 70
     1
102
RTVSPost2010Prop56
140
1.0
102
RTVSPost2010PropOp56
 70
     1
102
RTVSPost2010Prop57
140
1.0
102
RTVSPost2010PropOp57
 70
     1
102
RTVSPropertyOp0
 70
     1
102
RTVSPropertyOp1
 70
     1
102
RTVSPropertyOp2
 70
     1
102
RTVSPropertyOp3
 70
     1
102
RTVSPropertyOp4
 70
     1
102
RTVSPropertyOp5
 70
     1
102
RTVSPropertyOp6
 70
     1
102
RTVSPropertyOp7
 70
     1
102
RTVSPropertyOp8
 70
     1
102
RTVSPropertyOp9
 70
     1
102
RTVSPropertyOp10
 70
     1
102
RTVSPropertyOp11
 70
     1
102
RTVSPropertyOp12
 70
     1
102
RTVSPropertyOp13
 70
     1
102
RTVSPropertyOp14
 70
     1
102
RTVSPropertyOp15
 70
     1
102
RTVSPropertyOp16
 70
     1
102
RTVSPropertyOp17
 70
     1
102
RTVSPropertyOp18
 70
     1
102
RTVSPropertyOp19
 70
     1
102
RTVSPropertyOp20
 70
     1
102
RTVSPropertyOp21
 70
     1
102
RTVSPropertyOp22
 70
     1
102
RTVSPropertyOp23
 70
     1
102
RTVSPropertyOp24
 70
     1
102
RTVSPropertyOp25
 70
     1
102
RTVSPropertyOp26
 70
     1
102
RTVSPropertyOp27
 70
     1
102
RTVSPropertyOp28
 70
     1
102
RTVSPropertyOp29
 70
     1
102
RTVSPropertyOp30
 70
     1
102
RTVSPropertyOp31
 70
     1
102
RTVSPropertyOp32
 70
     1
102
RTVSPropertyOp33
 70
     1
102
RTVSPropertyOp34
 70
     1
102
RTVSPropertyOp35
 70
     1
102
RTVSPropertyOp36
 70
     1
102
RTVSPropertyOp37
 70
     1
102
RTVSPropertyOp38
 70
     1
102
RTVSPropertyOp39
 70
     1
102
RTVSPropertyOp40
 70
     1
102
RTVSPropertyOp41
 70
     1
102
RTVSPropertyOp42
 70
     1
102
RTVSPropertyOp43
 70
     1
102
RTVSPropertyOp44
 70
     1
102
RTVSPropertyOp45
 70
     1
102
RTVSPropertyOp46
 70
     1
102
RTVSPropertyOp47
 70
     1
102
RTVSPropertyOp48
 70
     1
102
RTVSPropertyOp49
 70
     1
102
RTVSPropertyOp50
 70
     1
102
RTVSPropertyOp51
 70
     0
102
RTVSPropertyOp52
 70
     0
102
RTVSPropertyOp53
 70
     1
102
RTVSPropertyOp54
 70
     1
102
RTVSPropertyOp55
 70
     1
102
RTVSPropertyOp56
 70
     1
102
RTVSPropertyOp57
 70
     1
102
RTVSPropertyOp58
 70
     1
102
RTVSPropertyOp59
 70
     1
102
RTVSPropertyOp60
 70
     1
102
RTVSPropertyOp61
 70
     1
102
RTVSPropertyOp62
 70
     1
  0
XRECORD
  5
13C6
102
{ACAD_REACTORS
330
13C5
102
}
330
13C5
100
AcDbXrecord
280
     1
102
RTVSPost2010Prop28
280
     0
102
RTVSPost2010PropOp28
 70
     1
102
RTVSPost2010Prop29
280
     1
102
RTVSPost2010PropOp29
 70
     1
102
RTVSPost2010Prop30
280
     1
102
RTVSPost2010PropOp30
 70
     1
102
RTVSPost2010Prop31
280
     0
102
RTVSPost2010PropOp31
 70
     1
102
RTVSPost2010Prop32
280
     0
102
RTVSPost2010PropOp32
 70
     1
102
RTVSPost2010Prop33
280
     0
102
RTVSPost2010PropOp33
 70
     1
102
RTVSPost2010Prop34
280
     0
102
RTVSPost2010PropOp34
 70
     1
102
RTVSPost2010Prop35
280
     0
102
RTVSPost2010PropOp35
 70
     1
102
RTVSPost2010Prop36
280
     0
102
RTVSPost2010PropOp36
 70
     1
102
RTVSPost2010Prop37
 90
       50
102
RTVSPost2010PropOp37
 70
     1
102
RTVSPost2010Prop38
140
0.0
102
RTVSPost2010PropOp38
 70
     1
102
RTVSPost2010Prop39
140
1.0
102
RTVSPost2010PropOp39
 70
     1
102
RTVSPost2010Prop40
 90
        0
102
RTVSPost2010PropOp40
 70
     1
102
RTVSPost2010Prop41ColorIndex
 90
       18
102
RTVSPost2010Prop41ColorRGB
 90
        0
102
RTVSPost2010PropOp41
 70
     1
102
RTVSPost2010Prop42
 90
       50
102
RTVSPost2010PropOp42
 70
     1
102
RTVSPost2010Prop43
 90
        3
102
RTVSPost2010PropOp43
 70
     1
102
RTVSPost2010Prop44ColorIndex
 90
        5
102
RTVSPost2010Prop44ColorRGB
 90
      255
102
RTVSPost2010PropOp44
 70
     1
102
RTVSPost2010Prop45
280
     0
102
RTVSPost2010PropOp45
 70
     1
102
RTVSPost2010Prop46
 90
       50
102
RTVSPost2010PropOp46
 70
     1
102
RTVSPost2010Prop47
 90
       50
102
RTVSPost2010PropOp47
 70
     1
102
RTVSPost2010Prop48
 90
       50
102
RTVSPost2010PropOp48
 70
     1
102
RTVSPost2010Prop49
280
     0
102
RTVSPost2010PropOp49
 70
     1
102
RTVSPost2010Prop50
 90
       50
102
RTVSPost2010PropOp50
 70
     1
102
RTVSPost2010Prop51ColorIndex
 90
      256
102
RTVSPost2010Prop51ColorRGB
 90
-16777216
102
RTVSPost2010PropOp51
 70
     0
102
RTVSPost2010Prop52
140
1.0
102
RTVSPost2010PropOp52
 70
     0
102
RTVSPost2010Prop53
 90
        2
102
RTVSPost2010PropOp53
 70
     1
102
RTVSPost2010Prop54
  1
strokes_ogs.tif
102
RTVSPost2010PropOp54
 70
     1
102
RTVSPost2010Prop55
280
     0
102
RTVSPost2010PropOp55
 70
     1
102
RTVSPost2010Prop56
140
1.0
102
RTVSPost2010PropOp56
 70
     1
102
RTVSPost2010Prop57
140
1.0
102
RTVSPost2010PropOp57
 70
     1
102
RTVSPropertyOp0
 70
     1
102
RTVSPropertyOp1
 70
     1
102
RTVSPropertyOp2
 70
     1
102
RTVSPropertyOp3
 70
     1
102
RTVSPropertyOp4
 70
     1
102
RTVSPropertyOp5
 70
     1
102
RTVSPropertyOp6
 70
     1
102
RTVSPropertyOp7
 70
     1
102
RTVSPropertyOp8
 70
     1
102
RTVSPropertyOp9
 70
     1
102
RTVSPropertyOp10
 70
     1
102
RTVSPropertyOp11
 70
     1
102
RTVSPropertyOp12
 70
     1
102
RTVSPropertyOp13
 70
     1
102
RTVSPropertyOp14
 70
     1
102
RTVSPropertyOp15
 70
     1
102
RTVSPropertyOp16
 70
     1
102
RTVSPropertyOp17
 70
     1
102
RTVSPropertyOp18
 70
     1
102
RTVSPropertyOp19
 70
     1
102
RTVSPropertyOp20
 70
     1
102
RTVSPropertyOp21
 70
     1
102
RTVSPropertyOp22
 70
     1
102
RTVSPropertyOp23
 70
     1
102
RTVSPropertyOp24
 70
     1
102
RTVSPropertyOp25
 70
     1
102
RTVSPropertyOp26
 70
     1
102
RTVSPropertyOp27
 70
     1
102
RTVSPropertyOp28
 70
     1
102
RTVSPropertyOp29
 70
     1
102
RTVSPropertyOp30
 70
     1
102
RTVSPropertyOp31
 70
     1
102
RTVSPropertyOp32
 70
     1
102
RTVSPropertyOp33
 70
     1
102
RTVSPropertyOp34
 70
     1
102
RTVSPropertyOp35
 70
     1
102
RTVSPropertyOp36
 70
     1
102
RTVSPropertyOp37
 70
     1
102
RTVSPropertyOp38
 70
     1
102
RTVSPropertyOp39
 70
     1
102
RTVSPropertyOp40
 70
     1
102
RTVSPropertyOp41
 70
     1
102
RTVSPropertyOp42
 70
     1
102
RTVSPropertyOp43
 70
     1
102
RTVSPropertyOp44
 70
     1
102
RTVSPropertyOp45
 70
     1
102
RTVSPropertyOp46
 70
     1
102
RTVSPropertyOp47
 70
     1
102
RTVSPropertyOp48
 70
     1
102
RTVSPropertyOp49
 70
     1
102
RTVSPropertyOp50
 70
     1
102
RTVSPropertyOp51
 70
     0
102
RTVSPropertyOp52
 70
     0
102
RTVSPropertyOp53
 70
     1
102
RTVSPropertyOp54
 70
     1
102
RTVSPropertyOp55
 70
     1
102
RTVSPropertyOp56
 70
     1
102
RTVSPropertyOp57
 70
     1
102
RTVSPropertyOp58
 70
     1
102
RTVSPropertyOp59
 70
     1
102
RTVSPropertyOp60
 70
     1
102
RTVSPropertyOp61
 70
     1
102
RTVSPropertyOp62
 70
     1
  0
XRECORD
  5
13C0
102
{ACAD_REACTORS
330
13BF
102
}
330
13BF
100
AcDbXrecord
280
     1
102
RTVSPost2010Prop28
280
     0
102
RTVSPost2010PropOp28
 70
     1
102
RTVSPost2010Prop29
280
     1
102
RTVSPost2010PropOp29
 70
     1
102
RTVSPost2010Prop30
280
     1
102
RTVSPost2010PropOp30
 70
     1
102
RTVSPost2010Prop31
280
     0
102
RTVSPost2010PropOp31
 70
     1
102
RTVSPost2010Prop32
280
     0
102
RTVSPost2010PropOp32
 70
     1
102
RTVSPost2010Prop33
280
     0
102
RTVSPost2010PropOp33
 70
     1
102
RTVSPost2010Prop34
280
     0
102
RTVSPost2010PropOp34
 70
     1
102
RTVSPost2010Prop35
280
     0
102
RTVSPost2010PropOp35
 70
     1
102
RTVSPost2010Prop36
280
     0
102
RTVSPost2010PropOp36
 70
     1
102
RTVSPost2010Prop37
 90
       50
102
RTVSPost2010PropOp37
 70
     1
102
RTVSPost2010Prop38
140
0.0
102
RTVSPost2010PropOp38
 70
     1
102
RTVSPost2010Prop39
140
1.0
102
RTVSPost2010PropOp39
 70
     1
102
RTVSPost2010Prop40
 90
        0
102
RTVSPost2010PropOp40
 70
     1
102
RTVSPost2010Prop41ColorIndex
 90
       18
102
RTVSPost2010Prop41ColorRGB
 90
        0
102
RTVSPost2010PropOp41
 70
     1
102
RTVSPost2010Prop42
 90
       50
102
RTVSPost2010PropOp42
 70
     1
102
RTVSPost2010Prop43
 90
        3
102
RTVSPost2010PropOp43
 70
     1
102
RTVSPost2010Prop44ColorIndex
 90
        5
102
RTVSPost2010Prop44ColorRGB
 90
      255
102
RTVSPost2010PropOp44
 70
     1
102
RTVSPost2010Prop45
280
     0
102
RTVSPost2010PropOp45
 70
     1
102
RTVSPost2010Prop46
 90
       50
102
RTVSPost2010PropOp46
 70
     1
102
RTVSPost2010Prop47
 90
       50
102
RTVSPost2010PropOp47
 70
     1
102
RTVSPost2010Prop48
 90
       50
102
RTVSPost2010PropOp48
 70
     1
102
RTVSPost2010Prop49
280
     0
102
RTVSPost2010PropOp49
 70
     1
102
RTVSPost2010Prop50
 90
       50
102
RTVSPost2010PropOp50
 70
     1
102
RTVSPost2010Prop51ColorIndex
 90
      256
102
RTVSPost2010Prop51ColorRGB
 90
-16777216
102
RTVSPost2010PropOp51
 70
     0
102
RTVSPost2010Prop52
140
1.0
102
RTVSPost2010PropOp52
 70
     0
102
RTVSPost2010Prop53
 90
        2
102
RTVSPost2010PropOp53
 70
     1
102
RTVSPost2010Prop54
  1
strokes_ogs.tif
102
RTVSPost2010PropOp54
 70
     1
102
RTVSPost2010Prop55
280
     0
102
RTVSPost2010PropOp55
 70
     1
102
RTVSPost2010Prop56
140
1.0
102
RTVSPost2010PropOp56
 70
     1
102
RTVSPost2010Prop57
140
1.0
102
RTVSPost2010PropOp57
 70
     1
102
RTVSPropertyOp0
 70
     1
102
RTVSPropertyOp1
 70
     1
102
RTVSPropertyOp2
 70
     1
102
RTVSPropertyOp3
 70
     1
102
RTVSPropertyOp4
 70
     1
102
RTVSPropertyOp5
 70
     1
102
RTVSPropertyOp6
 70
     1
102
RTVSPropertyOp7
 70
     1
102
RTVSPropertyOp8
 70
     1
102
RTVSPropertyOp9
 70
     1
102
RTVSPropertyOp10
 70
     1
102
RTVSPropertyOp11
 70
     1
102
RTVSPropertyOp12
 70
     1
102
RTVSPropertyOp13
 70
     1
102
RTVSPropertyOp14
 70
     1
102
RTVSPropertyOp15
 70
     1
102
RTVSPropertyOp16
 70
     1
102
RTVSPropertyOp17
 70
     1
102
RTVSPropertyOp18
 70
     1
102
RTVSPropertyOp19
 70
     1
102
RTVSPropertyOp20
 70
     1
102
RTVSPropertyOp21
 70
     1
102
RTVSPropertyOp22
 70
     1
102
RTVSPropertyOp23
 70
     1
102
RTVSPropertyOp24
 70
     1
102
RTVSPropertyOp25
 70
     1
102
RTVSPropertyOp26
 70
     1
102
RTVSPropertyOp27
 70
     1
102
RTVSPropertyOp28
 70
     1
102
RTVSPropertyOp29
 70
     1
102
RTVSPropertyOp30
 70
     1
102
RTVSPropertyOp31
 70
     1
102
RTVSPropertyOp32
 70
     1
102
RTVSPropertyOp33
 70
     1
102
RTVSPropertyOp34
 70
     1
102
RTVSPropertyOp35
 70
     1
102
RTVSPropertyOp36
 70
     1
102
RTVSPropertyOp37
 70
     1
102
RTVSPropertyOp38
 70
     1
102
RTVSPropertyOp39
 70
     1
102
RTVSPropertyOp40
 70
     1
102
RTVSPropertyOp41
 70
     1
102
RTVSPropertyOp42
 70
     1
102
RTVSPropertyOp43
 70
     1
102
RTVSPropertyOp44
 70
     1
102
RTVSPropertyOp45
 70
     1
102
RTVSPropertyOp46
 70
     1
102
RTVSPropertyOp47
 70
     1
102
RTVSPropertyOp48
 70
     1
102
RTVSPropertyOp49
 70
     1
102
RTVSPropertyOp50
 70
     1
102
RTVSPropertyOp51
 70
     0
102
RTVSPropertyOp52
 70
     0
102
RTVSPropertyOp53
 70
     1
102
RTVSPropertyOp54
 70
     1
102
RTVSPropertyOp55
 70
     1
102
RTVSPropertyOp56
 70
     1
102
RTVSPropertyOp57
 70
     1
102
RTVSPropertyOp58
 70
     1
102
RTVSPropertyOp59
 70
     1
102
RTVSPropertyOp60
 70
     1
102
RTVSPropertyOp61
 70
     1
102
RTVSPropertyOp62
 70
     1
  0
XRECORD
  5
13C2
102
{ACAD_REACTORS
330
13C1
102
}
330
13C1
100
AcDbXrecord
280
     1
102
RTVSPost2010Prop28
280
     0
102
RTVSPost2010PropOp28
 70
     1
102
RTVSPost2010Prop29
280
     1
102
RTVSPost2010PropOp29
 70
     1
102
RTVSPost2010Prop30
280
     1
102
RTVSPost2010PropOp30
 70
     1
102
RTVSPost2010Prop31
280
     0
102
RTVSPost2010PropOp31
 70
     1
102
RTVSPost2010Prop32
280
     0
102
RTVSPost2010PropOp32
 70
     1
102
RTVSPost2010Prop33
280
     0
102
RTVSPost2010PropOp33
 70
     1
102
RTVSPost2010Prop34
280
     0
102
RTVSPost2010PropOp34
 70
     1
102
RTVSPost2010Prop35
280
     0
102
RTVSPost2010PropOp35
 70
     1
102
RTVSPost2010Prop36
280
     0
102
RTVSPost2010PropOp36
 70
     1
102
RTVSPost2010Prop37
 90
       50
102
RTVSPost2010PropOp37
 70
     1
102
RTVSPost2010Prop38
140
0.0
102
RTVSPost2010PropOp38
 70
     1
102
RTVSPost2010Prop39
140
1.0
102
RTVSPost2010PropOp39
 70
     1
102
RTVSPost2010Prop40
 90
        0
102
RTVSPost2010PropOp40
 70
     1
102
RTVSPost2010Prop41ColorIndex
 90
       18
102
RTVSPost2010Prop41ColorRGB
 90
        0
102
RTVSPost2010PropOp41
 70
     1
102
RTVSPost2010Prop42
 90
       50
102
RTVSPost2010PropOp42
 70
     1
102
RTVSPost2010Prop43
 90
        3
102
RTVSPost2010PropOp43
 70
     1
102
RTVSPost2010Prop44ColorIndex
 90
        5
102
RTVSPost2010Prop44ColorRGB
 90
      255
102
RTVSPost2010PropOp44
 70
     1
102
RTVSPost2010Prop45
280
     0
102
RTVSPost2010PropOp45
 70
     1
102
RTVSPost2010Prop46
 90
       50
102
RTVSPost2010PropOp46
 70
     1
102
RTVSPost2010Prop47
 90
       50
102
RTVSPost2010PropOp47
 70
     1
102
RTVSPost2010Prop48
 90
       50
102
RTVSPost2010PropOp48
 70
     1
102
RTVSPost2010Prop49
280
     0
102
RTVSPost2010PropOp49
 70
     1
102
RTVSPost2010Prop50
 90
       50
102
RTVSPost2010PropOp50
 70
     1
102
RTVSPost2010Prop51ColorIndex
 90
      256
102
RTVSPost2010Prop51ColorRGB
 90
-16777216
102
RTVSPost2010PropOp51
 70
     0
102
RTVSPost2010Prop52
140
1.0
102
RTVSPost2010PropOp52
 70
     0
102
RTVSPost2010Prop53
 90
        2
102
RTVSPost2010PropOp53
 70
     1
102
RTVSPost2010Prop54
  1
strokes_ogs.tif
102
RTVSPost2010PropOp54
 70
     1
102
RTVSPost2010Prop55
280
     0
102
RTVSPost2010PropOp55
 70
     1
102
RTVSPost2010Prop56
140
1.0
102
RTVSPost2010PropOp56
 70
     1
102
RTVSPost2010Prop57
140
1.0
102
RTVSPost2010PropOp57
 70
     1
102
RTVSPropertyOp0
 70
     1
102
RTVSPropertyOp1
 70
     1
102
RTVSPropertyOp2
 70
     1
102
RTVSPropertyOp3
 70
     1
102
RTVSPropertyOp4
 70
     1
102
RTVSPropertyOp5
 70
     1
102
RTVSPropertyOp6
 70
     1
102
RTVSPropertyOp7
 70
     1
102
RTVSPropertyOp8
 70
     1
102
RTVSPropertyOp9
 70
     1
102
RTVSPropertyOp10
 70
     1
102
RTVSPropertyOp11
 70
     1
102
RTVSPropertyOp12
 70
     1
102
RTVSPropertyOp13
 70
     1
102
RTVSPropertyOp14
 70
     1
102
RTVSPropertyOp15
 70
     1
102
RTVSPropertyOp16
 70
     1
102
RTVSPropertyOp17
 70
     1
102
RTVSPropertyOp18
 70
     1
102
RTVSPropertyOp19
 70
     1
102
RTVSPropertyOp20
 70
     1
102
RTVSPropertyOp21
 70
     1
102
RTVSPropertyOp22
 70
     1
102
RTVSPropertyOp23
 70
     1
102
RTVSPropertyOp24
 70
     1
102
RTVSPropertyOp25
 70
     1
102
RTVSPropertyOp26
 70
     1
102
RTVSPropertyOp27
 70
     1
102
RTVSPropertyOp28
 70
     1
102
RTVSPropertyOp29
 70
     1
102
RTVSPropertyOp30
 70
     1
102
RTVSPropertyOp31
 70
     1
102
RTVSPropertyOp32
 70
     1
102
RTVSPropertyOp33
 70
     1
102
RTVSPropertyOp34
 70
     1
102
RTVSPropertyOp35
 70
     1
102
RTVSPropertyOp36
 70
     1
102
RTVSPropertyOp37
 70
     1
102
RTVSPropertyOp38
 70
     1
102
RTVSPropertyOp39
 70
     1
102
RTVSPropertyOp40
 70
     1
102
RTVSPropertyOp41
 70
     1
102
RTVSPropertyOp42
 70
     1
102
RTVSPropertyOp43
 70
     1
102
RTVSPropertyOp44
 70
     1
102
RTVSPropertyOp45
 70
     1
102
RTVSPropertyOp46
 70
     1
102
RTVSPropertyOp47
 70
     1
102
RTVSPropertyOp48
 70
     1
102
RTVSPropertyOp49
 70
     1
102
RTVSPropertyOp50
 70
     1
102
RTVSPropertyOp51
 70
     0
102
RTVSPropertyOp52
 70
     0
102
RTVSPropertyOp53
 70
     1
102
RTVSPropertyOp54
 70
     1
102
RTVSPropertyOp55
 70
     1
102
RTVSPropertyOp56
 70
     1
102
RTVSPropertyOp57
 70
     1
102
RTVSPropertyOp58
 70
     1
102
RTVSPropertyOp59
 70
     1
102
RTVSPropertyOp60
 70
     1
102
RTVSPropertyOp61
 70
     1
102
RTVSPropertyOp62
 70
     1
  0
XRECORD
  5
13B4
102
{ACAD_REACTORS
330
13B3
102
}
330
13B3
100
AcDbXrecord
280
     1
102
RTVSPost2010Prop28
280
     0
102
RTVSPost2010PropOp28
 70
     1
102
RTVSPost2010Prop29
280
     1
102
RTVSPost2010PropOp29
 70
     1
102
RTVSPost2010Prop30
280
     1
102
RTVSPost2010PropOp30
 70
     1
102
RTVSPost2010Prop31
280
     0
102
RTVSPost2010PropOp31
 70
     1
102
RTVSPost2010Prop32
280
     0
102
RTVSPost2010PropOp32
 70
     1
102
RTVSPost2010Prop33
280
     0
102
RTVSPost2010PropOp33
 70
     1
102
RTVSPost2010Prop34
280
     0
102
RTVSPost2010PropOp34
 70
     1
102
RTVSPost2010Prop35
280
     0
102
RTVSPost2010PropOp35
 70
     1
102
RTVSPost2010Prop36
280
     0
102
RTVSPost2010PropOp36
 70
     1
102
RTVSPost2010Prop37
 90
       50
102
RTVSPost2010PropOp37
 70
     1
102
RTVSPost2010Prop38
140
0.0
102
RTVSPost2010PropOp38
 70
     1
102
RTVSPost2010Prop39
140
1.0
102
RTVSPost2010PropOp39
 70
     1
102
RTVSPost2010Prop40
 90
        0
102
RTVSPost2010PropOp40
 70
     1
102
RTVSPost2010Prop41ColorIndex
 90
       18
102
RTVSPost2010Prop41ColorRGB
 90
        0
102
RTVSPost2010PropOp41
 70
     1
102
RTVSPost2010Prop42
 90
       50
102
RTVSPost2010PropOp42
 70
     1
102
RTVSPost2010Prop43
 90
        3
102
RTVSPost2010PropOp43
 70
     1
102
RTVSPost2010Prop44ColorIndex
 90
        5
102
RTVSPost2010Prop44ColorRGB
 90
      255
102
RTVSPost2010PropOp44
 70
     1
102
RTVSPost2010Prop45
280
     0
102
RTVSPost2010PropOp45
 70
     1
102
RTVSPost2010Prop46
 90
       50
102
RTVSPost2010PropOp46
 70
     1
102
RTVSPost2010Prop47
 90
       50
102
RTVSPost2010PropOp47
 70
     1
102
RTVSPost2010Prop48
 90
       50
102
RTVSPost2010PropOp48
 70
     1
102
RTVSPost2010Prop49
280
     0
102
RTVSPost2010PropOp49
 70
     1
102
RTVSPost2010Prop50
 90
       50
102
RTVSPost2010PropOp50
 70
     1
102
RTVSPost2010Prop51ColorIndex
 90
      256
102
RTVSPost2010Prop51ColorRGB
 90
-16777216
102
RTVSPost2010PropOp51
 70
     0
102
RTVSPost2010Prop52
140
1.0
102
RTVSPost2010PropOp52
 70
     0
102
RTVSPost2010Prop53
 90
        2
102
RTVSPost2010PropOp53
 70
     1
102
RTVSPost2010Prop54
  1
strokes_ogs.tif
102
RTVSPost2010PropOp54
 70
     1
102
RTVSPost2010Prop55
280
     0
102
RTVSPost2010PropOp55
 70
     1
102
RTVSPost2010Prop56
140
1.0
102
RTVSPost2010PropOp56
 70
     1
102
RTVSPost2010Prop57
140
1.0
102
RTVSPost2010PropOp57
 70
     1
102
RTVSPropertyOp0
 70
     1
102
RTVSPropertyOp1
 70
     1
102
RTVSPropertyOp2
 70
     1
102
RTVSPropertyOp3
 70
     1
102
RTVSPropertyOp4
 70
     1
102
RTVSPropertyOp5
 70
     1
102
RTVSPropertyOp6
 70
     1
102
RTVSPropertyOp7
 70
     1
102
RTVSPropertyOp8
 70
     1
102
RTVSPropertyOp9
 70
     1
102
RTVSPropertyOp10
 70
     1
102
RTVSPropertyOp11
 70
     1
102
RTVSPropertyOp12
 70
     1
102
RTVSPropertyOp13
 70
     1
102
RTVSPropertyOp14
 70
     1
102
RTVSPropertyOp15
 70
     1
102
RTVSPropertyOp16
 70
     1
102
RTVSPropertyOp17
 70
     1
102
RTVSPropertyOp18
 70
     1
102
RTVSPropertyOp19
 70
     1
102
RTVSPropertyOp20
 70
     1
102
RTVSPropertyOp21
 70
     1
102
RTVSPropertyOp22
 70
     1
102
RTVSPropertyOp23
 70
     1
102
RTVSPropertyOp24
 70
     1
102
RTVSPropertyOp25
 70
     1
102
RTVSPropertyOp26
 70
     1
102
RTVSPropertyOp27
 70
     1
102
RTVSPropertyOp28
 70
     1
102
RTVSPropertyOp29
 70
     1
102
RTVSPropertyOp30
 70
     1
102
RTVSPropertyOp31
 70
     1
102
RTVSPropertyOp32
 70
     1
102
RTVSPropertyOp33
 70
     1
102
RTVSPropertyOp34
 70
     1
102
RTVSPropertyOp35
 70
     1
102
RTVSPropertyOp36
 70
     1
102
RTVSPropertyOp37
 70
     1
102
RTVSPropertyOp38
 70
     1
102
RTVSPropertyOp39
 70
     1
102
RTVSPropertyOp40
 70
     1
102
RTVSPropertyOp41
 70
     1
102
RTVSPropertyOp42
 70
     1
102
RTVSPropertyOp43
 70
     1
102
RTVSPropertyOp44
 70
     1
102
RTVSPropertyOp45
 70
     1
102
RTVSPropertyOp46
 70
     1
102
RTVSPropertyOp47
 70
     1
102
RTVSPropertyOp48
 70
     1
102
RTVSPropertyOp49
 70
     1
102
RTVSPropertyOp50
 70
     1
102
RTVSPropertyOp51
 70
     0
102
RTVSPropertyOp52
 70
     0
102
RTVSPropertyOp53
 70
     1
102
RTVSPropertyOp54
 70
     1
102
RTVSPropertyOp55
 70
     1
102
RTVSPropertyOp56
 70
     1
102
RTVSPropertyOp57
 70
     1
102
RTVSPropertyOp58
 70
     1
102
RTVSPropertyOp59
 70
     1
102
RTVSPropertyOp60
 70
     1
102
RTVSPropertyOp61
 70
     1
102
RTVSPropertyOp62
 70
     1
  0
XRECORD
  5
13BC
102
{ACAD_REACTORS
330
13BB
102
}
330
13BB
100
AcDbXrecord
280
     1
102
RTVSPost2010Prop28
280
     0
102
RTVSPost2010PropOp28
 70
     1
102
RTVSPost2010Prop29
280
     1
102
RTVSPost2010PropOp29
 70
     1
102
RTVSPost2010Prop30
280
     1
102
RTVSPost2010PropOp30
 70
     1
102
RTVSPost2010Prop31
280
     0
102
RTVSPost2010PropOp31
 70
     1
102
RTVSPost2010Prop32
280
     0
102
RTVSPost2010PropOp32
 70
     1
102
RTVSPost2010Prop33
280
     0
102
RTVSPost2010PropOp33
 70
     1
102
RTVSPost2010Prop34
280
     0
102
RTVSPost2010PropOp34
 70
     1
102
RTVSPost2010Prop35
280
     0
102
RTVSPost2010PropOp35
 70
     1
102
RTVSPost2010Prop36
280
     0
102
RTVSPost2010PropOp36
 70
     1
102
RTVSPost2010Prop37
 90
       50
102
RTVSPost2010PropOp37
 70
     1
102
RTVSPost2010Prop38
140
0.0
102
RTVSPost2010PropOp38
 70
     1
102
RTVSPost2010Prop39
140
1.0
102
RTVSPost2010PropOp39
 70
     1
102
RTVSPost2010Prop40
 90
        0
102
RTVSPost2010PropOp40
 70
     1
102
RTVSPost2010Prop41ColorIndex
 90
       18
102
RTVSPost2010Prop41ColorRGB
 90
        0
102
RTVSPost2010PropOp41
 70
     1
102
RTVSPost2010Prop42
 90
       50
102
RTVSPost2010PropOp42
 70
     1
102
RTVSPost2010Prop43
 90
        3
102
RTVSPost2010PropOp43
 70
     1
102
RTVSPost2010Prop44ColorIndex
 90
        5
102
RTVSPost2010Prop44ColorRGB
 90
      255
102
RTVSPost2010PropOp44
 70
     1
102
RTVSPost2010Prop45
280
     0
102
RTVSPost2010PropOp45
 70
     1
102
RTVSPost2010Prop46
 90
       50
102
RTVSPost2010PropOp46
 70
     1
102
RTVSPost2010Prop47
 90
       50
102
RTVSPost2010PropOp47
 70
     1
102
RTVSPost2010Prop48
 90
       50
102
RTVSPost2010PropOp48
 70
     1
102
RTVSPost2010Prop49
280
     0
102
RTVSPost2010PropOp49
 70
     1
102
RTVSPost2010Prop50
 90
       50
102
RTVSPost2010PropOp50
 70
     1
102
RTVSPost2010Prop51ColorIndex
 90
      256
102
RTVSPost2010Prop51ColorRGB
 90
-16777216
102
RTVSPost2010PropOp51
 70
     0
102
RTVSPost2010Prop52
140
1.0
102
RTVSPost2010PropOp52
 70
     0
102
RTVSPost2010Prop53
 90
        2
102
RTVSPost2010PropOp53
 70
     1
102
RTVSPost2010Prop54
  1
strokes_ogs.tif
102
RTVSPost2010PropOp54
 70
     1
102
RTVSPost2010Prop55
280
     0
102
RTVSPost2010PropOp55
 70
     1
102
RTVSPost2010Prop56
140
1.0
102
RTVSPost2010PropOp56
 70
     1
102
RTVSPost2010Prop57
140
1.0
102
RTVSPost2010PropOp57
 70
     1
102
RTVSPropertyOp0
 70
     1
102
RTVSPropertyOp1
 70
     1
102
RTVSPropertyOp2
 70
     1
102
RTVSPropertyOp3
 70
     1
102
RTVSPropertyOp4
 70
     1
102
RTVSPropertyOp5
 70
     1
102
RTVSPropertyOp6
 70
     1
102
RTVSPropertyOp7
 70
     1
102
RTVSPropertyOp8
 70
     1
102
RTVSPropertyOp9
 70
     1
102
RTVSPropertyOp10
 70
     1
102
RTVSPropertyOp11
 70
     1
102
RTVSPropertyOp12
 70
     1
102
RTVSPropertyOp13
 70
     1
102
RTVSPropertyOp14
 70
     1
102
RTVSPropertyOp15
 70
     1
102
RTVSPropertyOp16
 70
     1
102
RTVSPropertyOp17
 70
     1
102
RTVSPropertyOp18
 70
     1
102
RTVSPropertyOp19
 70
     1
102
RTVSPropertyOp20
 70
     1
102
RTVSPropertyOp21
 70
     1
102
RTVSPropertyOp22
 70
     1
102
RTVSPropertyOp23
 70
     1
102
RTVSPropertyOp24
 70
     1
102
RTVSPropertyOp25
 70
     1
102
RTVSPropertyOp26
 70
     1
102
RTVSPropertyOp27
 70
     1
102
RTVSPropertyOp28
 70
     1
102
RTVSPropertyOp29
 70
     1
102
RTVSPropertyOp30
 70
     1
102
RTVSPropertyOp31
 70
     1
102
RTVSPropertyOp32
 70
     1
102
RTVSPropertyOp33
 70
     1
102
RTVSPropertyOp34
 70
     1
102
RTVSPropertyOp35
 70
     1
102
RTVSPropertyOp36
 70
     1
102
RTVSPropertyOp37
 70
     1
102
RTVSPropertyOp38
 70
     1
102
RTVSPropertyOp39
 70
     1
102
RTVSPropertyOp40
 70
     1
102
RTVSPropertyOp41
 70
     1
102
RTVSPropertyOp42
 70
     1
102
RTVSPropertyOp43
 70
     1
102
RTVSPropertyOp44
 70
     1
102
RTVSPropertyOp45
 70
     1
102
RTVSPropertyOp46
 70
     1
102
RTVSPropertyOp47
 70
     1
102
RTVSPropertyOp48
 70
     1
102
RTVSPropertyOp49
 70
     1
102
RTVSPropertyOp50
 70
     1
102
RTVSPropertyOp51
 70
     0
102
RTVSPropertyOp52
 70
     0
102
RTVSPropertyOp53
 70
     1
102
RTVSPropertyOp54
 70
     1
102
RTVSPropertyOp55
 70
     1
102
RTVSPropertyOp56
 70
     1
102
RTVSPropertyOp57
 70
     1
102
RTVSPropertyOp58
 70
     1
102
RTVSPropertyOp59
 70
     1
102
RTVSPropertyOp60
 70
     1
102
RTVSPropertyOp61
 70
     1
102
RTVSPropertyOp62
 70
     1
  0
XRECORD
  5
13C4
102
{ACAD_REACTORS
330
13C3
102
}
330
13C3
100
AcDbXrecord
280
     1
102
RTVSPost2010Prop28
280
     0
102
RTVSPost2010PropOp28
 70
     1
102
RTVSPost2010Prop29
280
     1
102
RTVSPost2010PropOp29
 70
     1
102
RTVSPost2010Prop30
280
     1
102
RTVSPost2010PropOp30
 70
     1
102
RTVSPost2010Prop31
280
     0
102
RTVSPost2010PropOp31
 70
     1
102
RTVSPost2010Prop32
280
     0
102
RTVSPost2010PropOp32
 70
     1
102
RTVSPost2010Prop33
280
     0
102
RTVSPost2010PropOp33
 70
     1
102
RTVSPost2010Prop34
280
     0
102
RTVSPost2010PropOp34
 70
     1
102
RTVSPost2010Prop35
280
     0
102
RTVSPost2010PropOp35
 70
     1
102
RTVSPost2010Prop36
280
     0
102
RTVSPost2010PropOp36
 70
     1
102
RTVSPost2010Prop37
 90
       50
102
RTVSPost2010PropOp37
 70
     1
102
RTVSPost2010Prop38
140
0.0
102
RTVSPost2010PropOp38
 70
     1
102
RTVSPost2010Prop39
140
1.0
102
RTVSPost2010PropOp39
 70
     1
102
RTVSPost2010Prop40
 90
        0
102
RTVSPost2010PropOp40
 70
     1
102
RTVSPost2010Prop41ColorIndex
 90
       18
102
RTVSPost2010Prop41ColorRGB
 90
        0
102
RTVSPost2010PropOp41
 70
     1
102
RTVSPost2010Prop42
 90
       50
102
RTVSPost2010PropOp42
 70
     1
102
RTVSPost2010Prop43
 90
        3
102
RTVSPost2010PropOp43
 70
     1
102
RTVSPost2010Prop44ColorIndex
 90
        5
102
RTVSPost2010Prop44ColorRGB
 90
      255
102
RTVSPost2010PropOp44
 70
     1
102
RTVSPost2010Prop45
280
     0
102
RTVSPost2010PropOp45
 70
     1
102
RTVSPost2010Prop46
 90
       50
102
RTVSPost2010PropOp46
 70
     1
102
RTVSPost2010Prop47
 90
       50
102
RTVSPost2010PropOp47
 70
     1
102
RTVSPost2010Prop48
 90
       50
102
RTVSPost2010PropOp48
 70
     1
102
RTVSPost2010Prop49
280
     0
102
RTVSPost2010PropOp49
 70
     1
102
RTVSPost2010Prop50
 90
       50
102
RTVSPost2010PropOp50
 70
     1
102
RTVSPost2010Prop51ColorIndex
 90
      256
102
RTVSPost2010Prop51ColorRGB
 90
-16777216
102
RTVSPost2010PropOp51
 70
     0
102
RTVSPost2010Prop52
140
1.0
102
RTVSPost2010PropOp52
 70
     0
102
RTVSPost2010Prop53
 90
        2
102
RTVSPost2010PropOp53
 70
     1
102
RTVSPost2010Prop54
  1
strokes_ogs.tif
102
RTVSPost2010PropOp54
 70
     1
102
RTVSPost2010Prop55
280
     0
102
RTVSPost2010PropOp55
 70
     1
102
RTVSPost2010Prop56
140
1.0
102
RTVSPost2010PropOp56
 70
     1
102
RTVSPost2010Prop57
140
1.0
102
RTVSPost2010PropOp57
 70
     1
102
RTVSPropertyOp0
 70
     1
102
RTVSPropertyOp1
 70
     1
102
RTVSPropertyOp2
 70
     1
102
RTVSPropertyOp3
 70
     1
102
RTVSPropertyOp4
 70
     1
102
RTVSPropertyOp5
 70
     1
102
RTVSPropertyOp6
 70
     1
102
RTVSPropertyOp7
 70
     1
102
RTVSPropertyOp8
 70
     1
102
RTVSPropertyOp9
 70
     1
102
RTVSPropertyOp10
 70
     1
102
RTVSPropertyOp11
 70
     1
102
RTVSPropertyOp12
 70
     1
102
RTVSPropertyOp13
 70
     1
102
RTVSPropertyOp14
 70
     1
102
RTVSPropertyOp15
 70
     1
102
RTVSPropertyOp16
 70
     1
102
RTVSPropertyOp17
 70
     1
102
RTVSPropertyOp18
 70
     1
102
RTVSPropertyOp19
 70
     1
102
RTVSPropertyOp20
 70
     1
102
RTVSPropertyOp21
 70
     1
102
RTVSPropertyOp22
 70
     1
102
RTVSPropertyOp23
 70
     1
102
RTVSPropertyOp24
 70
     1
102
RTVSPropertyOp25
 70
     1
102
RTVSPropertyOp26
 70
     1
102
RTVSPropertyOp27
 70
     1
102
RTVSPropertyOp28
 70
     1
102
RTVSPropertyOp29
 70
     1
102
RTVSPropertyOp30
 70
     1
102
RTVSPropertyOp31
 70
     1
102
RTVSPropertyOp32
 70
     1
102
RTVSPropertyOp33
 70
     1
102
RTVSPropertyOp34
 70
     1
102
RTVSPropertyOp35
 70
     1
102
RTVSPropertyOp36
 70
     1
102
RTVSPropertyOp37
 70
     1
102
RTVSPropertyOp38
 70
     1
102
RTVSPropertyOp39
 70
     1
102
RTVSPropertyOp40
 70
     1
102
RTVSPropertyOp41
 70
     1
102
RTVSPropertyOp42
 70
     1
102
RTVSPropertyOp43
 70
     1
102
RTVSPropertyOp44
 70
     1
102
RTVSPropertyOp45
 70
     1
102
RTVSPropertyOp46
 70
     1
102
RTVSPropertyOp47
 70
     1
102
RTVSPropertyOp48
 70
     1
102
RTVSPropertyOp49
 70
     1
102
RTVSPropertyOp50
 70
     1
102
RTVSPropertyOp51
 70
     0
102
RTVSPropertyOp52
 70
     0
102
RTVSPropertyOp53
 70
     1
102
RTVSPropertyOp54
 70
     1
102
RTVSPropertyOp55
 70
     1
102
RTVSPropertyOp56
 70
     1
102
RTVSPropertyOp57
 70
     1
102
RTVSPropertyOp58
 70
     1
102
RTVSPropertyOp59
 70
     1
102
RTVSPropertyOp60
 70
     1
102
RTVSPropertyOp61
 70
     1
102
RTVSPropertyOp62
 70
     1
  0
ENDSEC
  0
EOF
